<?xml version="1.0" standalone="no"?>
<!DOCTYPE svg PUBLIC "-//W3C//DTD SVG 1.1//EN" "http://www.w3.org/Graphics/SVG/1.1/DTD/svg11.dtd" >
<svg xmlns="http://www.w3.org/2000/svg">
<metadata>Generated by IcoMoon</metadata>
<defs>
<font id="iconk" horiz-adv-x="1024">
<font-face units-per-em="1024" ascent="960" descent="-64" />
<missing-glyph horiz-adv-x="1024" />
<glyph unicode="&#x20;" horiz-adv-x="512" d="" />
<glyph unicode="&#xe900;" glyph-name="ico1" d="M202.837 712.098l264.054-264.054-264.054-264.054c-12.493-12.404-12.493-32.661 0-45.065 12.404-12.493 32.661-12.493 45.065 0l264.054 264.054 264.054-264.054c12.404-12.493 32.661-12.493 45.065 0 12.404 12.404 12.404 32.661 0 45.065l-264.054 264.054 264.054 264.054c12.493 12.404 12.493 32.661 0 45.065-12.404 12.493-32.661 12.493-45.065 0l-264.054-264.054-264.054 264.054c-12.404 12.493-32.661 12.493-45.065 0-12.493-12.404-12.493-32.661 0-45.065z" />
<glyph unicode="&#xe901;" glyph-name="ico2" d="M480.098 853.361v-373.459h-373.459c-17.58 0-31.858-14.278-31.858-31.858s14.278-31.858 31.858-31.858h373.459v-373.459c0-17.58 14.278-31.858 31.858-31.858s31.858 14.278 31.858 31.858v373.459h373.459c17.58 0 31.858 14.278 31.858 31.858s-14.278 31.858-31.858 31.858h-373.459v373.459c0 17.58-14.278 31.858-31.858 31.858s-31.858-14.278-31.858-31.858z" />
<glyph unicode="&#xe902;" glyph-name="ico3" d="M917.361 479.902h-810.722c-17.58 0-31.858-14.278-31.858-31.858s14.278-31.858 31.858-31.858h810.722c17.58 0 31.858 14.278 31.858 31.858s-14.278 31.858-31.858 31.858z" />
<glyph unicode="&#xe903;" glyph-name="ico4" horiz-adv-x="1025" d="M700.394 863.381c79.725-36.104 147.62-94.881 195.060-168.321 47.44-73.687 72.331-158.833 72.331-246.444 0-121.127-47.687-236.217-133.326-321.856s-200.729-133.326-321.856-133.326c-121.127 0-236.217 47.687-321.856 133.326s-133.326 200.729-133.326 321.856c0 87.611 24.768 172.757 72.331 246.444 47.44 73.564 115.213 132.217 195.060 168.321 14.417 6.531 20.825 23.412 14.417 37.829-6.531 14.417-23.412 20.825-37.829 14.294-89.829-40.663-166.35-106.833-219.705-189.762-53.478-82.928-81.573-178.672-81.573-277.249 0-136.407 53.725-266.036 150.084-362.396 96.483-96.483 225.989-150.084 362.396-150.084s266.036 53.725 362.396 150.084c96.483 96.483 150.084 225.989 150.084 362.396 0 98.578-28.095 194.321-81.573 277.249-53.478 82.805-129.876 149.099-219.705 189.762-14.417 6.531-31.298 0-37.829-14.294-6.531-14.417 0-31.298 14.417-37.829zM488.822 931.4v-523.693c0-15.896 12.815-28.711 28.711-28.711s28.711 12.815 28.711 28.711v523.693c0 15.896-12.815 28.711-28.711 28.711s-28.711-12.815-28.711-28.711z" />
<glyph unicode="&#xe904;" glyph-name="ico5" d="M317.168 525.027l262.796 135.929c-9.062 18.124-9.062 27.186-9.062 45.31 0 36.248 18.124 63.434 36.248 81.558 18.124 27.186 54.372 36.248 81.558 36.248 36.248 0 63.434-9.062 90.619-36.248 18.124-18.124 36.248-45.31 36.248-81.558s-18.124-63.434-36.248-81.558c-27.186-27.186-54.372-36.248-90.619-36.248-27.186 0-63.434 9.062-81.558 36.248 0 0 0 0-9.062 0l-253.735-135.929c0-18.124 9.062-27.186 9.062-45.31s-9.062-36.248-9.062-45.31l253.735-144.991c0 9.062 9.062 9.062 9.062 9.062 18.124 27.186 54.372 36.248 81.558 36.248 36.248 0 63.434-9.062 90.619-36.248 18.124-18.124 36.248-54.372 36.248-81.558 0-36.248-18.124-63.434-36.248-90.619-27.186-18.124-54.372-36.248-90.619-36.248-27.186 0-63.434 18.124-81.558 36.248-18.124 27.186-36.248 54.372-36.248 90.619 0 9.062 0 27.186 9.062 36.248l-262.796 144.991c0 0 0-9.062 0-9.062-27.186-18.124-54.372-36.248-90.619-36.248-27.186 0-63.434 18.124-81.558 36.248-27.186 27.186-36.248 54.372-36.248 90.619 0 27.186 9.062 63.434 36.248 81.558 18.124 27.186 54.372 36.248 81.558 36.248 36.248 0 63.434-9.062 90.619-36.248 0 0 0 0 0 0zM752.142 235.044c-18.124 9.062-36.248 18.124-63.434 18.124-18.124 0-36.248-9.062-54.372-18.124-9.062-18.124-18.124-36.248-18.124-54.372 0-27.186 9.062-45.31 18.124-54.372 18.124-18.124 36.248-27.186 54.372-27.186 27.186 0 45.31 9.062 63.434 27.186 9.062 9.062 18.124 27.186 18.124 54.372 0 18.124-9.062 36.248-18.124 54.372zM688.708 624.708c27.186 0 45.31 9.062 63.434 27.186 9.062 9.062 18.124 36.248 18.124 54.372s-9.062 45.31-18.124 54.372c-18.124 18.124-36.248 27.186-63.434 27.186-18.124 0-36.248-9.062-54.372-27.186-9.062-9.062-18.124-36.248-18.124-54.372s9.062-45.31 18.124-54.372c18.124-18.124 36.248-27.186 54.372-27.186zM280.92 497.841c-9.062 9.062-27.186 18.124-54.372 18.124-18.124 0-36.248-9.062-54.372-18.124-9.062-18.124-18.124-36.248-18.124-54.372 0-27.186 9.062-45.31 18.124-54.372 18.124-18.124 36.248-27.186 54.372-27.186 27.186 0 45.31 9.062 54.372 27.186 18.124 9.062 27.186 27.186 27.186 54.372 0 18.124-9.062 36.248-27.186 54.372z" />
<glyph unicode="&#xe905;" glyph-name="ico6" d="M512.045 3.875l17.376 19.276c76.924 85.25 142.265 187.515 188.42 292.494 39.548 90.047 70.861 196.384 68.779 295.48-2.353 111.586-58.101 203.624-162.718 246.068-35.838 14.57-74.752 21.539-113.486 21.267s-77.648-7.964-113.305-23.077c-104.798-44.345-159.007-138.283-159.822-250.593-0.633-98.554 30.86-203.533 70.589-292.946 46.064-103.622 110.681-204.438 186.7-288.693l17.376-19.276zM350.504 330.577c-37.105 83.44-67.151 181.994-66.608 274.032 0.633 92.219 44.797 171.134 131.224 207.786 30.046 12.76 62.807 19.186 95.386 19.457 32.67 0.271 65.522-5.701 95.748-18.009 86.155-34.933 131.767-112.038 133.668-203.533 1.9-92.4-28.145-192.13-64.979-276.023-39.096-88.961-92.219-174.845-154.301-249.688l-8.688-10.498-8.688 10.498c-61.359 73.847-113.848 158.374-152.763 245.977zM512.045 703.796c-57.648 0-104.346-46.698-104.346-104.346s46.698-104.346 104.346-104.346c57.648 0 104.346 46.698 104.346 104.346s-46.698 104.346-104.346 104.346z" />
<glyph unicode="&#xe906;" glyph-name="ico7" d="M512 960c-136.277 0-265.676-53.625-362.084-149.916-96.291-96.291-149.916-225.807-149.916-362.084s53.625-265.676 149.916-362.084c96.291-96.291 225.807-149.916 362.084-149.916s265.676 53.625 362.084 149.916c96.291 96.291 149.916 225.807 149.916 362.084s-53.625 265.676-149.916 362.084c-96.291 96.291-225.807 149.916-362.084 149.916zM828.036 764.036c84.051-84.051 130.914-197.129 130.914-316.036s-46.863-231.985-130.914-316.036c-84.051-84.051-197.129-130.914-316.036-130.914s-231.985 46.863-316.036 130.914c-84.051 84.051-130.914 197.129-130.914 316.036s46.863 231.869 130.914 316.036c84.051 84.051 197.129 130.914 316.036 130.914s231.985-46.863 316.036-130.914zM187.454 422.12l217.53-207.854c12.94-12.357 33.457-11.774 45.814 1.049l359.985 386.914c12.24 13.056 11.424 33.69-1.632 45.814-13.056 12.24-33.69 11.424-45.814-1.632l-337.253-362.55-193.865 185.122c-12.94 12.357-33.457 11.774-45.814-1.166s-11.774-33.457 1.166-45.931z" />
<glyph unicode="&#xe907;" glyph-name="ico8" d="M512 960c-136.257 0-265.648-53.627-362.011-149.989s-149.989-225.754-149.989-362.011c0-136.257 53.627-265.648 149.989-362.011s225.754-149.989 362.011-149.989c136.257 0 265.648 53.627 362.011 149.989s149.989 225.754 149.989 362.011c0 136.257-53.627 265.648-149.989 362.011s-225.754 149.989-362.011 149.989zM833.406 769.406c85.471-85.471 133.179-200.42 133.179-321.406s-47.589-235.934-133.179-321.406c-85.471-85.471-200.538-133.179-321.406-133.179-120.986 0-235.934 47.589-321.406 133.179-85.471 85.471-133.179 200.538-133.179 321.406 0 120.986 47.589 235.934 133.179 321.406 85.471 85.471 200.42 133.179 321.406 133.179s235.934-47.589 321.406-133.179zM284.471 634.924l186.924-186.924-186.924-186.924c-11.246-11.246-11.246-29.359 0-40.605s29.359-11.246 40.605 0l186.924 186.924 186.924-186.924c11.246-11.246 29.359-11.246 40.605 0s11.246 29.359 0 40.605l-186.924 186.924 186.924 186.924c11.246 11.246 11.246 29.359 0 40.605s-29.359 11.246-40.605 0l-186.924-186.924-186.924 186.924c-11.246 11.246-29.359 11.246-40.605 0s-11.246-29.359 0-40.605z" />
<glyph unicode="&#xe908;" glyph-name="ico9" d="M344.354 724.389c36.248 0 81.558-9.062 108.743-36.248 27.186-9.062 45.31-27.186 63.434-54.372 9.062 27.186 27.186 45.31 54.372 54.372 27.186 27.186 72.496 36.248 108.743 36.248 63.434 0 108.743-27.186 144.991-63.434s63.434-81.558 63.434-144.991c0-27.186-9.062-54.372-18.124-81.558-9.062-18.124-27.186-45.31-45.31-63.434l-308.106-326.23-317.168 326.23c-18.124 18.124-36.248 45.31-45.31 63.434-9.062 27.186-18.124 54.372-18.124 81.558 0 63.434 27.186 108.743 63.434 144.991s90.619 63.434 144.991 63.434zM434.973 651.894c-27.186 18.124-54.372 27.186-90.619 27.186-45.31 0-90.619-18.124-117.805-45.31s-45.31-72.496-45.31-117.805c0-18.124 0-45.31 9.062-63.434s27.186-36.248 36.248-54.372l289.982-289.982 280.92 289.982c18.124 18.124 27.186 36.248 36.248 54.372s9.062 45.31 9.062 63.434-18.124 90.619-45.31 117.805c-27.186 27.186-72.496 45.31-117.805 45.31-27.186 0-63.434-9.062-90.619-27.186s-45.31-36.248-54.372-72.496l-18.124-45.31-27.186 45.31c-9.062 36.248-27.186 54.372-54.372 72.496z" />
<glyph unicode="&#xe909;" glyph-name="ico10" d="M503.146 920.599l141.579-340.992 361.567-26.136-279.6-238.45 87.639-352.225-313.076 191.961-309.295-191.961 85.637 357.786-277.598 232.889 367.128 29.806z" />
<glyph unicode="&#xe90a;" glyph-name="ico11" d="M512.048 960c-135.364 0-267.449-52.063-362.030-150.018-97.955-94.581-150.018-226.666-150.018-362.030 0-137.099 50.906-266.292 150.018-362.030 94.581-97.955 226.666-150.018 362.030-150.018 137.099 0 266.292 50.906 362.030 150.018 99.112 95.641 150.018 224.931 150.018 362.030 0 135.364-52.063 267.449-150.018 362.030-95.641 99.112-224.931 150.018-362.030 150.018zM844.576 777.105c86.964-86.964 135.171-206.323 135.171-329.153 0-124.18-49.074-242.864-135.171-332.528-89.664-86.097-208.348-135.171-332.528-135.171-122.83 0-242.189 48.206-329.153 135.171-88.507 88.507-138.545 206.998-138.545 332.528 0 124.083 49.074 243.249 138.545 329.153 85.904 89.471 205.166 138.545 329.153 138.545 125.529 0 244.021-50.038 332.528-138.545zM661.199 670.665l-2.41 71.153h-93.135c-41.265 0-71.924-17.258-89.375-54.859-7.424-16.197-13.305-39.818-13.305-57.848v-115.406h-110.682v-77.902h110.682v-288.563h91.303v288.563h90.146l17.065 77.902h-107.115v78.48c0 49.171 5.978 78.48 61.704 78.48h45.121z" />
<glyph unicode="&#xe90b;" glyph-name="ico12" horiz-adv-x="1028" d="M18.367 300.58c14.863-40.722 32.867-80.477 52.322-119.265l3.504-7.008-61.505-232.246 225.238 68.272 7.371-3.746c38.788-19.334 78.543-37.459 119.265-52.322 48.697-11.117 97.273-18.367 147.42-18.367 138.84 0 265.355 51.718 364.803 147.178 95.46 99.327 151.045 225.48 151.045 364.803 0 137.028-56.793 266.806-151.045 364.803-99.327 95.581-225.963 147.178-364.803 147.178-134.853 0-265.355-51.597-360.937-147.178-97.394-97.394-151.045-226.809-151.045-364.803 0-50.147 7.129-98.723 18.367-147.42zM258.83 66.642l-10.029 6.042-156.966-50.751 41.205 164.699-6.283 8.338c-24.53 36.855-40.843 77.939-55.947 119.386l-0.483 1.692c-11.721 43.138-16.071 87.243-16.071 131.953 0 123.494 44.951 237.563 132.557 325.169 86.156 86.156 203.488 132.557 325.169 132.557 123.494 0 237.563-44.951 325.169-132.557 87.364-87.364 136.424-200.95 136.424-325.169s-49.059-237.805-136.424-325.169c-87.606-87.606-201.675-132.557-325.169-132.557-43.501 0-90.748 3.746-132.436 16.192l-0.604 0.121-0.604 0.242c-42.776 15.588-83.256 31.901-119.627 59.814zM371.57 661.517c-12.446 0.846-26.705 2.175-36.976 1.208l-1.813-1.813h-2.658c-9.425-8.7-25.617-30.209-31.78-38.184-42.051-51.355 36.855-175.816 65.856-216.417 64.526-90.627 172.554-149.111 278.889-175.695 40.601-7.854 86.156 16.313 113.586 46.038l5.196 43.863c-13.171 6.283-26.463 12.567-39.634 18.73-15.467 7.25-42.655 21.267-59.451 26.463-9.909-9.063-39.392-46.763-47.73-55.222-35.284-35.284-127.603 39.513-155.153 64.526-29.967 27.309-50.147 54.98-72.26 88.21l-0.725 1.208c-10.513 18.488-10.029 36.613 3.383 53.047 5.679 7.008 15.588 14.379 19.817 21.509l0.483 0.846c4.833 7.25 6.042 17.4 2.175 25.859l-41.084 95.702z" />
<glyph unicode="&#xe90c;" glyph-name="ico13" horiz-adv-x="1005" d="M254.254 960c-67.475 0-131.076-21.838-177.367-72.054l-0.453-0.503-0.503-0.453c-48.858-45.084-75.928-111.251-75.928-177.418v-519.321c0-66.167 27.071-132.334 75.928-177.418l0.503-0.453 0.453-0.503c46.342-50.166 109.238-75.878 177.367-75.878h499.999c68.23 0 130.019 28.53 177.87 76.381 46.141 46.141 72.507 112.811 72.507 177.87v519.321c0 65.060-26.366 131.73-72.507 177.87-48.053 48.053-109.993 72.507-177.87 72.507h-499.999zM902.235 857.001c39.599-39.7 62.796-90.872 62.796-147.378v-519.371c0-56.405-23.297-111.754-63.148-151.555-38.543-38.543-93.489-59.273-147.68-59.273h-499.999c-55.852 0-111.653 19.322-151.555 59.273-39.851 39.851-63.148 95.2-63.148 151.555v519.371c0 56.506 23.246 107.628 62.796 147.378 38.945 43.071 94.395 63.45 151.857 63.45h499.999c55.751 0 110.295-21.737 147.982-63.45zM680.137 272.117c44.933 48.908 72.557 110.848 72.557 177.87 0 65.311-26.416 127.855-72.507 173.996-48.053 48.053-109.993 72.507-177.87 72.507-65.915 0-128.459-23.196-173.493-72.054l-0.453-0.503-0.503-0.453c-48.807-45.034-72.054-107.628-72.054-173.493 0-67.878 24.504-129.818 72.507-177.87 46.141-46.141 108.685-72.507 173.996-72.507 66.972 0 128.962 27.574 177.87 72.507zM649.997 597.668c38.543-38.543 59.273-93.489 59.273-147.68 0-56.154-19.422-107.88-59.273-147.68-39.801-39.801-91.527-59.273-147.68-59.273-54.191 0-109.137 20.731-147.68 59.273-39.801 39.801-59.273 91.527-59.273 147.68 0 54.191 20.68 109.137 59.273 147.68 38.543 38.543 93.489 59.273 147.68 59.273 56.154 0 107.88-19.422 147.68-59.273zM792.997 789.526c-29.335 0-52.732-23.347-52.732-52.732 0-29.335 23.347-52.732 52.732-52.732 29.335 0 52.732 23.397 52.732 52.732s-23.347 52.732-52.732 52.732z" />
<glyph unicode="&#xe90d;" glyph-name="ico14" d="M92.471 841.851c-36.27 0-92.471-31.495-92.471-71.62v-590.966c0-38.592 52.784-96.633 92.471-96.633h886.428c40.913 0 75.782 60.012 75.782 96.633v590.966c0 20.281-10.557 37.365-24.531 51.295-14.236 14.193-31.32 20.369-51.295 20.369h-886.428zM54.23 806.764h963.48l-484.127-275.267-479.352 275.267zM533.67 492.861l486.011 275.267v-588.864c0-9.243-6.439-21.289-12.922-27.772-8.235-8.279-16.777-8.761-27.772-8.761h-886.428c-10.995 0-19.537 0.526-27.772 8.761-6.527 6.527-12.922 18.529-12.922 27.772v588.995l481.893-275.355z" />
<glyph unicode="&#xe90e;" glyph-name="ico15" d="M387.959 847.901l-185.541-34.786c0 0-27.044-19.302-27.044-19.302l-11.613-23.173c11.613-7.742 30.915-15.484 46.399-15.484 3.871 0 3.871 3.871 7.742 3.871 23.173 19.302 57.958 15.484 77.313-7.742 19.355-27.044 11.613-57.958-11.613-77.313-19.355-15.484-46.399-15.484-65.7 0 0 0-3.871 0-3.871 0-30.915 0-61.829 11.613-85.002 27.044l-38.657-77.313c-7.742-15.431-15.484-27.044-7.742-38.657l475.386-637.702c11.613-11.613 27.044-15.484 38.657-3.871 100.486 73.442 197.101 146.885 297.587 220.327 15.484 11.613 15.484 27.044 7.742 38.657l-475.386 637.702c-11.613 11.613-23.173 7.742-38.657 7.742zM214.031 960c65.7 0 119.841-42.528 131.401-104.357l-46.399-7.742c-7.742 38.657-42.528 65.7-85.055 65.7-50.216 0-88.873-38.657-88.873-88.873 0-46.399 38.657-88.873 88.873-88.873 19.355 0 34.786 7.742 50.27 19.302 11.613-7.742 27.044-23.173 23.173-42.528-19.355-15.484-46.399-23.173-73.442-23.173-77.313 0-135.272 61.829-135.272 135.272 0 77.313 57.958 135.272 135.272 135.272z" />
<glyph unicode="&#xe90f;" glyph-name="ico16" d="M0 789.32h74.346v-531.434h-74.346v531.434zM74.399 205.248v-57.327h-74.346v57.327h74.346zM972.979 789.32h34.091v-531.434h-34.091v531.434zM1007.070 205.248v-57.327h-34.091v57.327h34.091zM881.562 789.32h63.545v-531.434h-63.545v531.434zM945.106 205.248v-57.327h-63.545v57.327h63.545zM800.998 789.32h41.836v-531.434h-41.836v531.434zM842.834 205.248v-57.327h-41.836v57.327h41.836zM714.217 789.32h34.091v-531.434h-34.091v531.434zM748.308 205.248v-57.327h-34.091v57.327h34.091zM621.271 789.32h65.073v-531.434h-65.073v531.434zM686.344 205.248v-57.327h-65.073v57.327h65.073zM525.217 789.32h74.346v-531.434h-74.346v531.434zM599.563 205.248v-57.327h-74.346v57.327h74.346zM447.71 789.32h34.091v-531.434h-34.091v531.434zM481.8 205.248v-57.327h-34.091v57.327h34.091zM356.292 789.32h63.545v-531.434h-63.545v531.434zM419.836 205.248v-57.327h-63.545v57.327h63.545zM275.728 789.32h41.836v-531.434h-41.836v531.434zM317.565 205.248v-57.327h-41.836v57.327h41.836zM189 789.32h34.091v-531.434h-34.091v531.434zM223.091 205.248v-57.327h-34.091v57.327h34.091zM96.054 789.32h65.073v-531.434h-65.073v531.434zM161.127 205.248v-57.327h-65.073v57.327h65.073z" />
<glyph unicode="&#xe910;" glyph-name="ico17" d="M620.488 268.345l224.090-295.66 71.632 54.361-224.463 296.219-17.023-13.606-105.056 138.666 11.245 10.499c46.906 43.799 76.851 104.31 86.791 167.183 10.002 76.788-11.556 156.994-58.088 219.058s-116.115 102.571-193.027 112.573c-76.788 10.002-154.074-11.68-215.89-58.088-62.064-46.533-102.571-116.115-112.573-193.027-10.002-76.851 7.89-153.515 54.671-215.89 46.533-62.064 116.115-102.571 193.214-112.635 65.233-9.816 129.658 3.665 187.001 35.474l12.922 7.207 105.118-138.729-20.44-13.606zM531.15 463.236c-53.367-42.432-122.141-58.399-189.3-50.944l-0.932 0.124c-67.035 11.183-128.043 44.917-170.724 98.222l-0.746 0.994c-38.456 55.976-58.275 124.936-47.154 192.654 7.642 67.718 45.663 125.62 98.471 167.928 54.174 40.631 122.638 59.082 190.045 51.13 68.96-11.493 129.534-46.222 171.283-101.888 42.557-53.18 58.647-122.203 51.192-189.548l-0.124-0.932c-11.245-67.407-45.228-128.353-102.074-167.68zM255.184 831.398c-54.547-40.879-81.821-102.26-81.821-166.996 10.251 37.462 34.107 71.57 68.153 95.426 92.009 68.153 218.126 51.13 286.279-37.462 27.274-37.462 40.879-78.404 40.879-122.7 23.857 61.319 13.606 132.889-27.274 190.853-68.153 92.009-197.625 109.032-286.279 40.879v0z" />
<glyph unicode="&#xe911;" glyph-name="ico18" d="M296.559 706.66c-34.059-5.923-175.981-34.77-178.765-82.215l-32.104-551.459c-2.725-46.616 10.070-86.303 52.54-109.581 25.589-14.038 55.087-17.651 83.874-17.651h603.644c28.787 0 58.285 3.613 83.874 17.651 42.47 23.338 55.205 62.965 52.54 109.581l-32.104 551.459c-2.902 49.519-143.462 77.477-178.943 83.519l-16.941 2.902-3.791 16.763c-9.951 44.247-26.122 88.494-49.815 127.292-34.118 55.798-87.665 105.198-156.612 105.198s-122.435-49.4-156.553-105.198c-23.93-39.153-40.16-83.874-50.111-128.536l-3.732-16.704-16.881-2.962zM154.992 597.316c1.007 25.529 29.853 29.439 49.163 31.986 24.108 3.199 48.986 4.679 73.212 6.042l27.129 1.481-0.118-29.38c0-0.592 0.059-1.185 0.178-1.777l2.962-15.934-13.15-9.477c-8.53-6.16-13.505-15.874-13.505-26.418 0-18.007 14.571-32.578 32.578-32.578s32.578 14.571 32.578 32.578c0 10.188-4.679 19.606-12.735 25.826l-12.913 9.951 3.554 15.934c0.178 0.711 0.237 1.481 0.237 2.192l0.118 29.913 24.7 0.77c116.037 3.613 233.674 3.909 349.712 0.474l24.7-0.711 0.178-30.446c0-0.829 0.059-1.718 0.296-2.547l4.087-15.815-12.617-10.366c-7.582-6.219-11.906-15.401-11.906-25.174 0-18.007 14.571-32.578 32.578-32.578s32.578 14.571 32.578 32.578c0 10.899-5.331 20.968-14.394 27.010l-13.446 9.122 2.488 16.052c0.059 0.533 0.118 1.007 0.118 1.54l-0.059 29.972 27.069-1.481c24.108-1.303 48.867-2.843 72.738-6.101 18.718-2.606 45.372-6.279 49.341-29.32l0.237-1.422 32.223-549.919c1.718-29.498-5.509-59.766-33.23-74.989-19.547-10.721-43.951-12.913-65.926-12.913h-603.644c-21.916 0-46.32 2.192-65.926 12.913-27.721 15.223-34.947 45.55-33.23 74.989l32.104 548.202zM677.072 717.796c-100.222 10.070-206.368 9.655-306.59-0.888l-37.672-3.969 10.366 36.428c9.418 33.23 22.805 65.867 40.812 95.365 30.268 49.46 78.247 95.543 139.849 95.543s109.581-46.083 139.849-95.543c17.888-29.202 31.097-61.543 40.575-94.417l10.425-36.31-37.554 3.791z" />
<glyph unicode="&#xe912;" glyph-name="ico19" d="M512.154 960c-66.99 0-130.576-26.374-177.953-73.704-47.377-47.377-73.704-110.963-73.704-177.953s26.374-130.624 73.704-177.953c47.377-47.377 110.963-73.704 177.953-73.704s130.624 26.374 177.953 73.704c47.377 47.377 73.704 110.963 73.704 177.953s-26.374 130.576-73.704 177.953c-47.377 47.377-110.963 73.704-177.953 73.704zM667.857 863.998c41.431-41.383 64.497-97.105 64.497-155.703 0-58.55-23.065-114.272-64.497-155.703-41.383-41.431-97.105-64.497-155.703-64.497-58.55 0-114.272 23.065-155.703 64.497s-64.497 97.105-64.497 155.703c0 58.55 23.065 114.272 64.497 155.703 41.383 41.431 97.105 64.497 155.703 64.497 58.55 0 114.272-23.065 155.703-64.497zM39.434 73.879l8.44-8.056c51.885-49.535 126.596-82.575 194.545-102.955 86.555-25.895 179.536-37.163 269.735-37.163s183.18 11.269 269.735 37.163c67.997 20.332 142.612 53.372 194.545 102.955l8.44 8.056-5.323 10.358c-44.165 86.075-111.49 158.628-194.017 209.075s-176.658 76.821-273.427 76.821c-96.769 0-190.852-26.374-273.427-76.821-82.527-50.446-149.853-122.999-194.017-209.075l-5.323-10.358zM769.325 266.553c68.237-41.719 125.589-99.502 166.732-168.075l10.933-18.222-16.975-12.803c-45.651-34.382-102.523-58.167-156.95-74.471-83.678-25.031-173.637-35.725-260.816-35.725-87.226 0-177.138 10.693-260.816 35.725-54.474 16.304-111.299 40.137-156.95 74.471l-16.975 12.803 10.933 18.222c41.096 68.573 98.495 126.356 166.732 168.075 77.636 47.425 166.205 72.073 257.171 72.073 90.919 0 179.536-24.648 257.171-72.073z" />
<glyph unicode="&#xe913;" glyph-name="ico20" d="M409.561 784.705l247.958-256.212c21.676-22.408 46.475-53.881 42.734-87.204-2.738-24.607-21.251-48.288-36.293-67.071l-0.424-0.501-254.014-262.422c-8.138-8.408-8.022-21.791 0.386-29.929 8.369-8.138 21.753-8.022 29.891 0.386l254.399 262.846c0.694 0.694 1.234 1.273 1.736 1.928 21.637 26.882 42.426 54.768 46.398 90.174 5.322 47.632-22.678 88.4-54.305 121.067l-248.228 256.482c-8.138 8.408-21.521 8.524-29.891 0.386-8.408-8.177-8.524-21.56-0.386-29.929z" />
<glyph unicode="&#xe914;" glyph-name="ico21" d="M67.889 376.435l211.201-255.643c11.888-14.375 27.47-30.433 44.332-13.607l567.8 567.8c12.437 12.437-11.888 53.733-33.249 28.092l-0.476-0.585-544.865-552.51-205.422 244.926c-29.299 34.2-47.661-6.438-39.285-18.508z" />
<glyph unicode="&#xe915;" glyph-name="ico22" d="M709.052 706.067l2.509 33.716 231.346 65.079c11.722 3.293 25.718 8.821 37.872 8.821 24.111 0 43.36-19.602 43.36-43.635 0-24.072-19.289-43.36-43.36-43.36-16.191 0-31.050 8.703-38.616 23.052l-1.49 2.784-114.948-40.577-93.581-396.828h-31.481v-55.122l1.999-1.019c7.253-3.646 13.996-8.547 19.72-14.27 14.427-14.427 22.582-34.147 22.582-54.494 0-20.308-8.311-39.989-22.817-54.22l-5.685-5.567-0.47-0.353c-13.722-10.899-30.58-16.936-48.104-16.936-20.386 0-40.106 8.155-54.494 22.582-7.566 7.566-13.526 16.701-17.368 26.737l-0.902 2.352h-302.698l-0.902-2.352c-3.803-9.919-9.684-19.014-17.328-26.424l-6.194-5.998-0.47-0.353c-13.643-10.624-30.305-16.544-47.633-16.544-20.386 0-40.106 8.194-54.494 22.582-14.545 14.545-22.582 33.951-22.582 54.494 0 20.504 7.998 40.185 22.582 54.494 14.31 14.584 34.029 22.582 54.494 22.582 20.543 0 39.989-8.037 54.494-22.582 5.214-5.214 9.644-11.252 13.251-17.681l1.059-1.882h310.108l1.059 1.882c3.685 6.626 8.194 12.585 13.526 17.681 6.939 7.174 15.211 12.937 24.66 16.897l2.235 0.941v52.573h-495.623l-144.665 390.947h709.052zM695.488 217.815c-7.41 7.41-17.132 11.409-27.6 11.409-10.193 0-20.308-3.842-27.6-11.409-7.566-7.253-11.683-17.368-11.683-27.6 0-10.507 4.273-20.19 11.683-27.6 7.292-7.292 17.328-11.409 27.6-11.409 10.546 0 20.19 4.312 27.6 11.409 7.096 7.41 11.409 17.054 11.409 27.6 0 10.272-4.116 20.308-11.409 27.6zM247.459 217.815c-7.331 7.292-17.25 11.409-27.6 11.409-10.193 0-20.308-3.842-27.6-11.409-7.566-7.253-11.683-17.368-11.683-27.6 0-10.507 4.273-20.19 11.683-27.6 7.292-7.292 17.328-11.409 27.6-11.409 10.389 0 20.308 4.391 27.6 11.409 7.096 7.41 11.409 17.054 11.409 27.6 0 10.272-4.116 20.308-11.409 27.6zM79.154 651.965l113.419-298.189h506.6l5.018 298.189h-625.076z" />
<glyph unicode="&#xe916;" glyph-name="ico23" d="M559.856 685.491l2.696 32.497 222.048 62.971c11.388 3.051 24.692 8.408 36.399 8.408 22.705 0 41.259-18.554 41.259-41.259 0-20.789-20.47-41.259-41.259-41.259-17.703 0-28.736 6.705-37.179 22.173l-1.667 3.051-111.219-39.379-89.827-381.551h-30.439v-53.853l2.129-1.171c6.953-3.796 13.268-8.266 18.803-13.8 14.262-13.623 21.783-32.532 21.783-52.292 0-19.512-7.805-38.315-21.818-51.654-13.339-13.978-32.142-21.818-51.654-21.818-20.009 0-38.173 7.663-52.328 21.783-7.166 7.166-12.594 16.035-16.142 25.508l-0.993 2.661h-170.642l-0.993-2.661c-3.548-9.472-8.976-18.306-16.177-25.508-14.12-14.12-32.319-21.783-52.292-21.783-19.512 0-38.315 7.805-51.654 21.818-13.978 13.339-21.818 32.142-21.818 51.654 0 19.725 7.521 38.669 21.783 52.292 13.517 13.517 32.355 21.854 51.689 21.854 19.831 0 38.031-8.195 52.363-21.854 4.967-4.931 9.259-10.501 12.346-16.639l1.135-2.271h177.915l1.135 2.271c3.122 6.208 7.486 11.778 12.381 16.674 6.776 6.776 14.9 11.814 23.698 15.574l2.483 1.064v52.151h-355.511l-138.288 374.349h559.856zM643.687 373.155h256.886l-9.472-46.12h-256.886l9.472 46.12zM882.303 785.251h118.173l-9.472-46.12h-118.173l9.472 46.12zM717.514 647.886h260.611l-9.472-46.12h-261.782l10.643 46.12zM685.975 510.52h204.061l-9.472-46.12h-205.268l10.643 46.12zM546.339 217.413c-7.024 6.918-16.639 10.927-26.43 10.927-10.182 0-20.009-3.831-27.211-11.069-7.237-7.237-11.069-17.029-11.069-27.211 0-9.792 4.009-19.37 10.962-26.466 7.166-7.84 17.029-11.14 27.317-11.14 9.898 0 19.477 3.477 26.324 10.785l0.497 0.497c7.308 6.812 10.785 16.426 10.785 26.324 0 10.253-3.299 20.115-11.211 27.352zM184.017 163.24c6.812-7.308 16.426-10.785 26.324-10.785 10.324 0 19.902 3.725 27.211 11.069 6.989 6.989 11.069 16.674 11.069 26.572 0 10.182-3.831 20.009-10.927 27.104l-0.355 0.355c-7.344 6.599-16.887 10.82-26.962 10.82-9.792 0-19.37-4.009-26.501-10.962-7.805-7.166-11.778-16.922-11.778-27.317 0-9.969 4.115-19.512 11.459-26.324l0.532-0.532zM74.253 635.185l109.587-288.212h367.041l4.754 288.212h-481.382z" />
<glyph unicode="&#xe917;" glyph-name="ico24" d="M170.67 682.205l65.936-768.818h568.129l65.936 768.818h-700zM827.145 642.283l-59.018-689.263h-494.987l-59.306 689.263h613.311zM659.315 451.322l-138.789-138.789-138.573 138.717c-7.927 7.783-20.465 7.783-28.392 0.072-7.711-7.927-7.711-20.393 0.072-28.392l138.717-138.573-138.789-138.789c-7.638-7.638-7.638-20.321 0-27.96 7.999-7.999 20.321-7.999 28.32 0l138.645 138.645 138.861-138.717c7.711-7.927 20.177-7.927 27.96 0.072 7.927 7.783 7.927 20.249 0.072 27.888l-138.717 138.861 138.645 138.645c7.999 7.999 7.999 20.321 0 28.32-7.638 7.638-20.321 7.638-27.96 0zM292.309 774.299h456.29c10.881 0 19.961 8.647 19.961 19.673 0 11.097-8.863 19.961-19.961 19.961h-456.29c-10.953 0-19.673-9.080-19.673-19.961 0-10.809 8.863-19.673 19.673-19.673zM210.231 920.006h620.445c11.097 0 19.961 8.863 19.961 19.961s-8.863 19.961-19.961 19.961h-620.445c-10.953 0-19.673-9.080-19.673-19.961s8.647-19.961 19.673-19.961z" />
<glyph unicode="&#xe918;" glyph-name="ico25" horiz-adv-x="1027" d="M112.492 693.667c-62.292 0-112.492-50.065-112.492-112.519v-532.647c0-60.649 51.843-112.519 112.492-112.519h532.647c62.454 0 112.519 50.227 112.519 112.519v532.647c0 64.070-48.449 112.519-112.519 112.519h-532.647zM174.138 793.017h64.527v6.652c0 25.315 10.045 49.904 27.928 67.813 17.909 17.909 42.524 27.955 67.84 27.955h532.647c25.315 0 49.931-10.045 67.84-27.955s27.928-42.524 27.928-67.813v-532.647c0-24.507-11.904-47.911-26.931-66.682l-0.485-0.592-0.539-0.539c-17.909-17.909-42.524-27.955-67.813-27.955h-10.072v-64.527h10.072c42.040 0 83.46 17.478 113.138 47.157s47.157 71.099 47.157 113.138v532.647c0 42.040-17.478 83.46-47.157 113.138s-71.126 47.157-113.138 47.157h-532.647c-42.013 0-83.46-17.478-113.138-47.157s-47.157-71.099-47.157-113.138v-6.652z" />
<glyph unicode="&#xe919;" glyph-name="ico26" d="M429.344 692.138c35.275 6.065 71.457 5.137 107.413-1.96l91.013 124.39c31.809 43.464 80.637 66.548 134.395 53.098 18.442-5.116 35.791-13.924 50.891-25.146 16.379-10.768 29.437-25.311 39.834-41.835 29.293-46.559 22.361-100.709-9.242-144.132l-180.232-247.811c-31.624-43.464-80.74-66.672-133.962-52.458-19.081 4.126-36.843 12.996-52.458 24.631-9.799 6.787-18.834 15.038-26.735 24.218l-53.098-72.365c8.602-8.561 17.741-16.544 27.271-23.578 24.94-17.369 52.273-31.108 82.741-37.957 90.91-23.599 172.847 10.335 227.306 86.042l181.057 246.965c54.48 75.748 61.514 163.317 12.48 243.005-16.585 25.641-37.977 48.642-62.422 67.002-24.404 17.534-52.479 31.273-81.895 38.679-90.931 22.898-173.342-10.706-227.905-86.062l-126.494-174.724zM610.175 185.912c-35.605-6.044-72.076-5.302-108.156 1.939l-89.734-122.926c-31.768-43.506-80.74-66.775-134.21-53.201-19.040 4.827-36.843 13.058-52.582 24.857-15.306 11.469-29.21 25.188-39.297 41.525-29.066 47.013-22.609 100.255 9.365 144.008l181.057 247.811c31.789 43.506 80.555 66.445 134.045 53.222 26.941-6.642 52.603-22.444 72.262-42.99l52.954 72.014c-29.024 26.982-64.733 46.414-103.267 56.11-90.745 22.815-173.156-10.809-227.946-86.104l-180.211-247.811c-54.79-75.336-61.968-163.688-12.418-243.087 16.008-25.662 37.049-48.395 61.886-65.702l0.66-0.474c24.28-18.215 52.293-31.129 81.71-38.534 90.559-22.795 172.269 11.16 227.141 86.166l126.742 173.177z" />
<glyph unicode="&#xe91a;" glyph-name="ico27" d="M122.223 419.39l191.625 540.61h522.67l-249.512-335.933h348.985l-817.837-689.012 216.090 484.336z" />
<glyph unicode="&#xe91b;" glyph-name="ico28" d="M395.717 913.274c-268.339-54.706-440.269-317.823-385.562-588.751 31.259-143.275 119.827-257.909 237.066-328.238 70.328 96.38 174.534 166.723 299.583 192.774s250.098 2.604 351.7-57.31c80.758 109.413 117.224 252.688 85.965 395.977-54.706 268.324-317.823 440.269-588.751 385.562zM281.082 345.381l-15.637 67.725c-7.811 44.292-15.637 67.739-23.448 78.154-7.826 7.826-18.24 10.415-31.259 7.826-13.033-2.618-23.448-10.429-26.051-20.844s0-36.466 7.826-78.139l15.637-70.343c7.826-41.688 15.637-65.121 23.448-75.55 7.826-7.826 18.24-13.033 31.259-10.415 15.637 5.207 23.448 10.415 26.051 23.448 2.604 10.429 0 36.481-7.826 78.154zM109.152 345.381c-7.811 46.895-13.018 80.758-15.637 101.602 0 20.844 2.618 39.084 7.826 52.103 5.222 20.844 18.24 36.466 33.862 46.895 15.637 13.018 36.481 20.844 59.914 26.051 26.051 5.207 46.895 5.207 67.739 0 18.24-5.222 33.862-13.033 49.499-28.655 10.415-10.415 18.24-26.051 26.051-46.895 7.826-18.24 15.637-52.103 26.051-96.38 10.415-46.895 15.637-80.758 15.637-101.602 2.604-23.448 0-39.084-5.222-54.706-7.826-18.24-20.844-33.877-36.466-44.292-15.637-13.033-36.481-20.844-59.914-26.051-23.448-5.222-46.895-5.222-65.121 0-20.844 2.604-36.481 13.018-52.103 28.655-10.415 7.826-18.24 23.448-26.051 44.292-7.826 20.844-15.637 54.706-26.051 98.998zM458.234 220.332l-78.139 380.341 205.807 41.688 15.637-72.947-117.238-23.448 15.637-70.343 106.809 23.448 18.24-78.154-109.413-20.844 31.259-161.515-88.583-18.24zM718.747 272.434l-80.758 380.355 208.411 44.277 15.637-72.947-117.224-26.051 13.033-67.725 109.413 20.844 15.637-75.55-109.413-23.448 33.862-158.912-88.583-20.844zM265.46-8.923c62.517 80.758 153.704 143.275 263.117 166.723 109.427 20.844 216.222 2.618 304.805-49.499l-567.922-117.224z" />
<glyph unicode="&#xe91c;" glyph-name="ico29" d="M159.776 960h706.394c42.352 0 82.782-17.321 111.635-46.196 28.875-28.875 46.196-69.282 46.196-113.58v-706.394c0-42.352-17.321-82.782-46.196-111.635v0c-28.875-28.875-69.282-46.196-111.635-46.196h-706.394c-44.274 0-84.681 17.321-113.58 46.196-28.875 28.875-46.196 69.282-46.196 111.635v706.394c0 44.274 17.321 84.681 46.196 113.58v0c28.875 28.875 69.282 46.196 113.58 46.196zM329.161 748.286h540.852v-90.47h-540.852v90.47zM329.161 218.965h540.852v-90.47h-540.852v90.47zM209.816 228.575c30.797 0 55.829-25.008 55.829-55.806s-25.032-53.884-55.829-53.884c-30.797 0-55.806 23.086-55.806 53.884s25.008 55.806 55.806 55.806zM329.161 396.038h540.852v-92.392h-540.852v92.392zM209.816 405.671c30.797 0 55.829-25.032 55.829-55.829s-25.032-55.806-55.829-55.806c-30.797 0-55.806 25.008-55.806 55.806s25.008 55.829 55.806 55.829zM329.161 571.213h540.852v-90.47h-540.852v90.47zM209.816 580.822c30.797 0 55.829-23.086 55.829-53.884s-25.032-55.829-55.829-55.829c-30.797 0-55.806 25.032-55.806 55.829s25.008 53.884 55.806 53.884zM209.816 757.895c30.797 0 55.829-25.008 55.829-53.884 0-30.797-25.032-55.806-55.829-55.806s-55.806 25.008-55.806 55.806c0 28.875 25.008 53.884 55.806 53.884zM866.169 884.929h-706.394c-23.086 0-44.274-9.633-59.673-25.032v0c-15.399-15.399-25.008-36.563-25.008-59.673v-706.394c0-23.086 9.61-42.352 25.008-57.751s36.586-25.008 59.673-25.008h706.394c23.086 0 44.274 9.61 57.751 25.008 15.399 13.477 25.032 34.641 25.032 57.751v706.394c0 23.086-9.633 44.274-25.032 59.673s-34.641 25.032-57.751 25.032z" />
<glyph unicode="&#xe91d;" glyph-name="ico30" d="M100.41 640.678h472.198c17.187 0 31.661-8.141 42.516-22.615v0h0.905c9.951 14.473 25.329 22.615 41.611 22.615h266.855c16.283 0 31.661-8.141 42.516-22.615 9.046-12.664 15.378-29.852 15.378-47.943v-244.24c0-18.996-6.332-36.184-15.378-48.848-10.855-13.569-26.233-21.71-42.516-21.71h-266.855c-16.283 0-31.661 8.141-41.611 21.71l-0.905 0.905v-0.905c-10.855-13.569-25.329-21.71-42.516-21.71h-472.198c-17.187 0-32.565 8.141-42.516 21.71-9.951 12.664-16.283 29.852-16.283 48.848v244.24c0 18.092 6.332 35.279 16.283 47.943v0c9.951 14.473 25.329 22.615 42.516 22.615zM691.11 495.039c0 16.283 3.618 28.042 10.855 36.184 7.237 7.237 16.283 10.855 28.947 10.855 11.76 0 21.71-3.618 28.947-10.855 7.237-8.141 10.855-19.901 10.855-36.184 0-15.378-3.618-27.138-10.855-35.279-7.237-7.237-16.283-11.76-28.947-11.76-11.76 0-21.71 4.523-28.947 11.76-7.237 8.141-10.855 19.901-10.855 35.279zM718.247 495.039c0-10.855 0.905-18.996 3.618-22.615 2.714-2.714 5.428-4.523 9.046-4.523s6.332 1.809 8.141 4.523c2.714 3.618 4.523 11.76 4.523 22.615 0 11.76-1.809 19.901-4.523 23.519-1.809 2.714-4.523 4.523-8.141 4.523s-6.332-1.809-9.046-4.523c-2.714-3.618-3.618-11.76-3.618-23.519zM757.145 353.922h-25.329l94.982 188.155h24.424l-94.078-188.155zM812.325 400.961c0 15.378 3.618 27.138 9.951 35.279 7.237 8.141 17.187 11.76 28.947 11.76 12.664 0 21.71-3.618 28.947-11.76s10.855-19.901 10.855-35.279c0-16.283-3.618-28.042-10.855-36.184-7.237-7.237-16.283-11.76-28.042-11.76-12.664 0-22.615 4.523-29.852 11.76-6.332 8.141-9.951 19.901-9.951 36.184zM838.558 400.961c0-11.76 1.809-19.901 4.523-23.519 1.809-2.714 4.523-4.523 8.141-4.523s6.332 0.905 8.141 4.523c2.714 3.618 4.523 11.76 4.523 23.519 0 10.855-1.809 18.996-4.523 22.615-1.809 3.618-4.523 4.523-8.141 4.523s-6.332-0.905-8.141-4.523c-2.714-3.618-4.523-11.76-4.523-22.615zM265.046 371.11h-31.661v18.996c-5.428-7.237-11.76-12.664-18.996-16.283s-14.473-5.428-21.71-5.428c-14.473 0-28.042 5.428-37.993 17.187-10.855 12.664-16.283 28.947-16.283 50.657s5.428 38.898 15.378 49.753c10.855 11.76 23.519 17.187 39.802 17.187 14.473 0 26.233-5.428 37.088-18.092v65.131h34.375v-179.11zM549.993 462.473l-33.47-6.332c-0.905 7.237-3.618 11.76-8.141 15.378-3.618 3.618-9.046 5.428-15.378 5.428-8.141 0-15.378-3.618-19.901-9.046-5.428-6.332-8.141-16.283-8.141-29.852 0-15.378 2.714-26.233 8.141-32.565 4.523-6.332 11.76-9.951 20.806-9.951 6.332 0 11.76 2.714 15.378 6.332 4.523 3.618 7.237 9.951 9.046 18.996l33.47-6.332c-3.618-15.378-9.951-27.138-19.901-34.375-9.951-8.141-23.519-11.76-39.802-11.76-18.996 0-34.375 5.428-45.23 17.187-11.76 12.664-17.187 28.947-17.187 49.753 0 21.71 5.428 37.993 17.187 50.657 10.855 11.76 26.233 17.187 46.134 17.187 15.378 0 28.042-2.714 37.088-9.951 9.046-6.332 16.283-17.187 19.901-30.756zM286.756 407.293l34.375 5.428c0.905-6.332 4.523-11.76 8.141-14.473 4.523-3.618 10.855-5.428 18.996-5.428 9.046 0 15.378 1.809 19.901 4.523 3.618 2.714 4.523 5.428 4.523 9.046 0 2.714-0.905 5.428-1.809 7.237-1.809 0.905-6.332 2.714-11.76 4.523-28.042 5.428-45.23 10.855-52.466 16.283-10.855 7.237-15.378 17.187-15.378 28.947s4.523 20.806 13.569 28.947c8.141 7.237 22.615 10.855 40.707 10.855s30.756-2.714 39.802-8.141c8.141-6.332 14.473-14.473 17.187-26.233l-31.661-5.428c-1.809 4.523-4.523 9.046-8.141 11.76s-9.046 3.618-16.283 3.618c-9.046 0-15.378-0.905-19.901-3.618-2.714-1.809-3.618-4.523-3.618-7.237s0.905-4.523 3.618-6.332c2.714-1.809 13.569-5.428 31.661-9.046 18.092-4.523 30.756-9.951 37.993-15.378 7.237-6.332 10.855-14.473 10.855-25.329 0-12.664-4.523-22.615-14.473-30.756-9.951-9.046-24.424-12.664-44.325-12.664-17.187 0-31.661 3.618-41.611 9.951-9.951 7.237-17.187 17.187-19.901 28.947zM173.682 438.049c0-13.569 1.809-23.519 5.428-29.852 5.428-9.046 13.569-13.569 23.519-13.569 8.141 0 14.473 3.618 19.901 10.855 5.428 6.332 8.141 16.283 8.141 29.852 0 14.473-2.714 25.329-8.141 31.661-5.428 7.237-11.76 9.951-19.901 9.951s-15.378-2.714-20.806-9.046c-5.428-7.237-8.141-16.283-8.141-29.852zM630.502 570.12v-244.24c0-11.76 3.618-22.615 9.951-29.852 4.523-6.332 10.855-9.951 17.187-9.951h266.855c6.332 0 12.664 3.618 17.187 9.951h0.905c5.428 7.237 9.046 18.092 9.046 29.852v244.24c0 11.76-3.618 21.71-9.046 29.852h-0.905c-4.523 6.332-10.855 9.951-17.187 9.951h-266.855c-6.332 0-12.664-3.618-17.187-9.951-6.332-8.141-9.951-18.092-9.951-29.852zM572.608 609.922h-451.392c-6.332 0-12.664-3.618-18.092-9.951-5.428-8.141-9.046-18.092-9.046-29.852v-244.24c0-11.76 3.618-22.615 9.046-29.852v0c5.428-6.332 11.76-9.951 18.092-9.951h451.392c7.237 0 13.569 3.618 18.092 9.951v0c5.428 7.237 9.046 18.092 9.046 29.852v244.24c0 11.76-3.618 21.71-9.046 29.852v0c-4.523 6.332-10.855 9.951-18.092 9.951z" />
<glyph unicode="&#xe91e;" glyph-name="ico31" d="M879.878 467.747h-736.453v-184.981c0-24.943 20.095-45.029 45.029-45.029h646.386c24.943 0 45.029 20.095 45.029 45.029v184.981zM143.425 555.047h736.453v58.197c0 24.943-20.095 45.029-45.029 45.029h-646.395c-24.943 0-45.029-20.095-45.029-45.029v-58.197zM150.353 683.215h722.598c27.71 0 50.573-22.863 50.573-50.573 0-123.321 0-246.642 0-369.267 0-27.71-22.863-50.573-50.573-50.573h-722.598c-27.71 0-49.876 22.863-49.876 50.573 0 122.634 0 245.946 0 369.267 0 27.71 22.175 50.573 49.876 50.573zM202.318 399.168h327.005v-34.638h-327.005v34.638zM202.318 329.884h327.005v-33.941h-327.005v33.941zM617.998 404.712h189.133v-115.001h-189.133v115.001z" />
<glyph unicode="&#xe91f;" glyph-name="ico32" d="M41.27 467.872l38.954 39.487c16.769 0 34.081-0.542 38.954-5.406 5.948-5.415 17.845-17.312 28.666-28.133 7.576-8.118 14.609-15.151 18.397-18.93 3.788-3.788 7.024-6.491 10.279-8.109 3.788-2.703 7.566-3.788 10.821-3.788h0.542c3.788 0 7.033 1.085 10.821 3.788 3.245 1.618 6.491 4.321 10.279 8.109s10.821 10.821 18.93 18.93c10.279 10.821 22.175 22.718 28.123 28.133 4.873 4.863 20.566 5.406 36.251 5.406l38.954-39.487c17.854-17.845 17.854-47.062 0-64.916l-37.326-37.326c-15.684 0-32.996 0.542-37.869 5.415-5.948 5.406-17.845 17.302-28.123 28.123-8.118 8.118-15.151 15.151-18.93 18.93-3.788 3.788-7.024 6.491-10.279 8.109-3.788 2.703-7.024 3.788-10.821 3.788h-0.542c-3.245 0-7.033-1.085-10.821-3.788-3.245-1.618-6.491-4.321-10.279-8.109s-10.821-10.821-18.397-18.93c-10.821-10.821-22.718-22.718-28.666-28.123-5.415-5.415-23.802-5.957-40.572-4.873l-37.326 36.784c-17.854 17.845-17.854 47.062 0 64.916zM729.361 556.049c-3.245 0-5.406 2.161-5.948 5.415 0 2.703 2.161 5.406 5.406 5.406 0 0 17.312 0.542 34.081-1.085 4.33 0 9.194-1.618 13.524-3.788 4.873-2.161 9.194-4.873 11.363-7.576 11.906-11.897 60.044-60.044 60.586-60.044v0 0-0.542h0.542c3.788-3.788 7.576-5.415 10.821-5.415 3.788 0 7.566 1.618 11.363 5.415v0l0.542 0.542c0 0 0 0 0.542 0 3.788 4.33 48.138 48.69 59.501 60.044 2.703 2.703 7.024 5.415 11.897 7.576 4.321 2.161 8.66 3.788 12.981 3.788 17.302 1.618 34.614 1.085 34.614 1.085 2.703 0 5.415-2.703 4.873-5.406 0-3.245-2.703-5.415-5.415-5.415 0 0-16.227 0.542-32.996-1.085-3.245 0-6.491-1.085-9.736-2.703s-6.491-3.788-8.118-5.415c-11.363-11.897-56.256-56.256-60.044-60.044h-0.542v-0.542h-0.542c-5.406-5.957-11.897-8.66-18.93-8.66-6.491 0-12.448 2.703-18.397 8.118 0 0.542-0.542 0.542-0.542 0.542l-0.542 0.542h0.542c-0.542 0.542-48.69 48.147-60.586 60.044-1.618 1.618-4.873 3.788-8.66 5.406-2.703 1.618-6.491 2.703-9.194 2.703-16.769 1.618-32.996 1.085-32.996 1.085v0.009zM728.819 383.483c-3.245 0-5.406 2.703-5.406 5.415 0.542 3.245 2.703 5.406 5.948 5.406 0 0 16.227-0.542 32.996 1.085 2.703 0 6.491 1.085 9.194 2.703 3.788 1.618 7.033 3.788 8.66 5.415 11.897 11.897 60.044 59.501 60.577 60.044h-0.542l0.542 0.542c0 0 0.542 0 0.542 0 5.957 5.948 11.906 8.66 18.397 8.66 7.033 0 13.524-2.703 18.93-8.66h0.542v-0.542h0.542c3.788-4.33 48.69-48.69 60.044-60.044 1.618-1.618 4.863-3.788 8.109-5.415 3.245-1.618 6.491-2.703 9.736-2.703 16.769-1.618 33.005-1.085 33.005-1.085 2.703 0 5.406-2.161 5.406-5.406 0.542-2.703-2.161-5.415-4.863-5.415 0 0-17.312-0.542-34.623 1.085-4.321 0-8.66 1.618-12.981 3.788-4.863 2.161-9.194 4.863-11.897 7.566-11.363 11.363-55.714 55.723-59.501 59.501-0.542 0.542-0.542 0.542-0.542 0.542l-0.542 0.542c-3.788 3.245-7.566 5.415-11.363 5.415-3.245 0-7.024-1.618-10.821-5.415h-0.542v-0.542c-0.542 0-48.69-48.147-60.586-60.044-2.161-2.703-6.491-5.406-11.363-7.566-4.33-2.161-9.194-3.788-13.524-3.788-16.769-1.618-34.081-1.085-34.081-1.085h-0.009zM686.629 386.729c0-3.245-2.161-5.415-5.406-5.415-2.703 0-5.415 2.161-5.415 5.415v149.296c0 5.415-2.161 9.736-5.406 13.524-3.245 3.245-8.118 5.415-13.524 5.415h-29.208c-3.245 0-5.415 2.703-5.415 5.415 0 3.245 2.161 5.406 5.415 5.406h29.208c8.109 0 15.684-3.245 21.099-8.66 5.406-5.415 8.66-12.981 8.66-21.099v-149.305l-0.009 0.009zM463.756 383.483c-3.245 0-5.406 2.161-5.406 5.415 0 3.245 2.161 5.406 5.406 5.406h83.846c16.227 0 31.378 6.491 41.657 17.312 10.821 10.821 17.845 25.972 17.845 42.19v42.199c0 16.227-7.024 30.836-17.845 41.657-10.288 10.821-25.43 17.312-41.657 17.312h-59.501c-16.227 0-30.836-6.491-41.657-17.312s-17.312-25.43-17.312-41.657v-199.071c0-2.703-2.703-5.406-5.406-5.406-3.245 0-5.415 2.703-5.415 5.406v199.071c0 18.93 7.576 36.784 20.557 49.223 12.439 12.991 30.293 20.566 49.232 20.566h59.501c19.472 0 36.784-7.576 49.765-20.566 12.439-12.439 20.557-30.284 20.557-49.223v-42.199c0-19.472-8.109-36.784-20.557-49.765-12.981-12.439-30.293-20.557-49.765-20.557h-83.846zM664.996 604.738l12.981 12.981c1.618 1.618 4.873 1.618 7.033 0l12.981-12.981c1.618-2.161 1.618-5.415 0-7.033l-12.981-12.981c-2.161-1.618-5.415-1.618-7.033 0l-12.981 12.981c-1.618 1.618-1.618 4.873 0 7.033zM93.748 520.35l60.044 60.044c17.854 17.845 47.062 17.845 64.916 0l60.586-60.044c-13.524-0.542-26.505-2.703-32.454-8.66-5.957-5.415-17.854-17.854-28.675-28.675-7.576-8.118-14.609-15.151-18.397-18.93-2.703-2.703-5.406-4.863-7.566-6.491-1.618-0.542-3.245-1.085-4.33-1.085-1.618 0-2.703 0.542-4.321 1.085-2.703 1.618-4.873 3.788-8.118 6.491-3.788 3.788-10.821 10.821-18.397 18.93-10.821 10.821-22.718 23.26-28.666 28.675-6.491 5.948-20.015 8.109-34.623 8.66h-0.009zM280.913 352.657l-62.204-62.204c-17.845-17.854-47.062-17.854-64.916 0l-61.671 62.204c15.142 0.542 29.751 2.161 36.251 8.66 5.948 5.406 17.845 17.845 28.666 28.666 7.576 8.118 14.609 15.151 18.397 18.93 3.245 2.703 5.406 4.863 8.109 6.491 1.618 0.542 2.703 1.085 4.33 1.085 1.085 0 2.703-0.542 4.33-1.085 2.161-1.618 4.863-3.788 7.566-6.491 3.788-3.788 10.821-10.821 18.397-18.93 10.821-10.821 22.718-23.26 28.666-28.666 6.491-5.957 20.024-8.118 34.081-8.66v0z" />
<glyph unicode="&#xe920;" glyph-name="ico33" d="M108.217 660.821h58.675v-115.038h-26.466v-196.706h26.466v-113.887h-58.675v425.641zM888.167 660.821h27.606v-425.641h-27.606v425.641zM814.543 660.821h51.771v-115.038h-51.771v115.038zM866.314 349.067v-113.887h-51.771v113.887h51.771zM750.125 660.821h33.36v-115.038h-33.36v115.038zM783.485 349.067v-113.887h-33.36v113.887h33.36zM681.094 660.821h26.456v-115.038h-26.456v115.038zM707.55 349.067v-113.887h-26.456v113.887h26.456zM607.471 660.821h50.62v-115.038h-50.62v115.038zM658.081 349.067v-113.887h-50.61v113.887h50.61zM529.234 660.821h59.815v-115.038h-59.815v115.038zM589.060 349.067v-113.887h-59.815v113.887h59.815zM467.118 660.821h27.617v-115.038h-27.617v115.038zM494.734 349.067v-113.887h-27.617v113.887h27.617zM393.494 660.821h51.771v-115.038h-51.771v115.038zM445.265 349.067v-113.887h-51.771v113.887h51.771zM329.077 660.821h33.36v-115.038h-33.36v115.038zM362.447 349.067v-113.887h-33.36v113.887h33.36zM258.905 660.821h27.617v-115.038h-27.617v115.038zM286.511 349.067v-113.887h-27.606v113.887h27.606zM185.282 660.821h51.771v-115.038h-51.771v115.038zM237.052 349.067v-113.887h-51.771v113.887h51.771zM181.84 528.522h63.278c12.647 0 21.853-1.151 27.606-2.301s11.507-3.452 16.11-5.753c5.753-3.452 9.206-8.055 12.647-13.798 3.452-5.753 4.603-11.507 4.603-18.411s-2.301-13.808-5.753-19.562c-4.603-6.904-9.206-11.497-16.11-13.808 9.206-3.452 17.25-8.055 21.863-14.959 5.753-6.904 8.055-14.959 8.055-24.154 0-6.904-2.301-13.808-5.753-20.712-2.301-6.904-6.904-11.497-12.658-16.099-5.743-3.452-13.798-6.904-21.853-6.904-5.753-1.151-18.401-1.151-37.962-1.151h-54.072v157.603l0.010-0.010zM214.049 502.067v-36.812h20.702c12.658 0 19.562 0 23.003 1.151 5.753 0 9.206 2.301 12.658 5.753 3.452 2.301 4.592 6.904 4.592 11.507s-1.151 9.206-3.452 12.647c-3.452 2.301-6.904 4.603-12.647 4.603-3.452 1.151-11.507 1.151-26.456 1.151h-18.401zM214.049 438.789v-41.414h28.757c11.507 0 19.562 0 21.853 1.151 4.603 0 9.206 2.301 11.507 5.753 3.452 3.452 4.603 8.055 4.603 13.808 0 4.603-1.151 8.055-3.452 11.507s-5.753 5.753-9.206 8.055c-4.603 1.151-13.808 1.151-28.757 1.151l-25.315 0.010zM333.69 428.433c0 10.356 2.301 20.712 6.904 29.908 5.753 9.206 12.658 16.099 21.863 21.853 8.055 4.603 18.401 6.904 29.908 6.904 17.25 0 31.058-5.753 42.565-17.25 10.356-10.356 16.11-25.315 16.11-42.565 0-17.26-5.753-31.058-16.11-42.565-11.507-11.507-25.315-17.25-42.565-17.25-10.346 0-20.702 2.301-29.908 6.904s-16.11 11.507-21.863 20.702c-4.603 9.206-6.904 20.712-6.904 33.36zM364.748 427.282c0-11.507 2.301-19.562 8.055-26.466 4.603-5.753 11.507-8.055 19.562-8.055s14.959 2.301 19.551 8.055c5.753 6.904 8.055 14.959 8.055 26.466 0 11.497-2.301 19.551-8.055 26.456-4.592 5.753-11.497 9.206-19.551 9.206s-14.959-3.452-19.562-9.206c-5.753-6.904-8.055-14.959-8.055-26.456zM475.183 370.909v157.603h29.908v-157.603h-29.908zM601.718 406.57l31.058-4.603c-4.603-11.507-10.356-19.562-18.401-25.315-9.206-5.753-19.562-9.206-32.219-9.206-19.551 0-34.51 6.904-43.716 19.562-6.904 10.346-11.507 24.154-11.507 39.113 0 19.562 5.753 34.51 14.959 44.867 10.346 10.356 23.003 16.11 37.962 16.11 17.25 0 29.908-5.753 40.264-17.25 9.206-10.356 13.808-27.617 13.808-51.771h-75.925c0-8.055 3.452-14.959 8.055-20.702 4.603-4.603 10.356-6.904 17.25-6.904 4.603 0 8.055 1.151 11.507 3.452s5.753 6.904 6.904 12.647v0zM604.019 437.628c0 8.055-2.301 14.959-6.904 19.562s-9.206 6.904-16.11 6.904c-5.753 0-11.507-2.301-16.099-6.904-3.452-5.753-5.753-11.507-5.753-19.562h44.856zM711.002 484.796v-24.154h-20.712v-46.017c0-9.206 0-14.959 0-16.099 1.151-2.301 1.151-3.452 3.452-4.603 1.151-1.151 2.301-1.151 4.592-1.151 2.301 0 6.904 1.151 12.658 2.301l2.301-23.003c-6.904-3.452-14.959-4.603-24.154-4.603-5.753 0-10.356 1.151-14.959 3.452-3.452 1.151-6.904 3.452-9.206 6.904-2.301 2.301-3.452 6.904-4.603 11.507 0 3.452 0 10.346 0 21.853v49.469h-14.959v24.154h14.959v23.003l29.908 17.25v-40.264l20.712-0.010zM724.81 428.433c0 10.356 2.301 20.712 6.904 29.908 5.753 9.206 12.647 16.099 21.853 21.853 9.206 4.603 18.411 6.904 29.908 6.904 17.25 0 31.058-5.753 42.565-17.25 11.507-10.356 16.099-25.315 16.099-42.565 0-17.26-5.753-31.058-16.099-42.565-11.507-11.507-25.315-17.25-42.565-17.25-10.356 0-20.712 2.301-29.908 6.904-9.206 4.603-16.099 11.507-21.853 20.702-4.603 9.206-6.904 20.712-6.904 33.36zM755.869 427.282c0-11.507 2.301-19.562 8.055-26.466 5.753-5.753 11.507-8.055 19.562-8.055s14.959 2.301 19.562 8.055c5.753 6.904 8.055 14.959 8.055 26.466 0 11.497-2.301 19.551-8.055 26.456-4.603 5.753-11.507 9.206-19.562 9.206s-13.808-3.452-19.562-9.206c-5.753-6.904-8.055-14.959-8.055-26.456z" />
<glyph unicode="&#xe921;" glyph-name="ico34" d="M529.889 703.758c73.488-3.868 139.241-35.777 188.555-84.125 52.215-53.182 85.092-125.703 85.092-205.96s-32.876-152.778-85.092-205.96c-53.182-52.215-125.703-85.092-205.96-85.092s-153.745 32.876-205.96 85.092c-53.182 53.182-85.092 125.703-85.092 205.96s31.909 152.778 85.092 205.96c48.347 48.347 115.067 80.257 188.555 84.125v40.612h-104.431c-15.471 0-29.008 13.537-29.008 29.975 0 15.471 13.537 29.008 29.008 29.008h242.704c16.438 0 29.008-13.537 29.008-29.008 0-16.438-12.57-29.975-29.008-29.975h-103.464v-40.612zM512.483 458.153c1.934 0 4.835 0 7.736 0l98.629 149.877c4.835 8.703 15.471 10.636 24.174 5.802 7.736-5.802 9.669-16.438 4.835-24.174l-98.629-150.844c4.835-7.736 7.736-15.471 7.736-25.141 0-25.141-20.306-44.48-44.48-44.48-25.141 0-45.447 19.339-45.447 44.48 0 5.802 0.967 10.636 2.901 16.438l-70.587 68.653c-7.736 6.769-7.736 17.405-0.967 24.174s17.405 6.769 25.141 0.967l70.587-68.653c5.802 1.934 11.603 2.901 18.372 2.901zM693.303 594.493c-46.414 46.414-110.232 75.422-180.82 75.422s-135.373-29.008-181.787-75.422c-46.414-46.414-74.455-110.232-74.455-180.82s28.042-134.406 74.455-180.82c46.414-46.414 111.199-75.422 181.787-75.422s134.406 29.008 180.82 75.422c46.414 46.414 75.422 110.232 75.422 180.82s-29.008 134.406-75.422 180.82z" />
<glyph unicode="&#xe922;" glyph-name="ico35" d="M535.8 325.159c28.836-9.591 59.085-14.258 90.65-14.205 31.769 0.062 64.978 4.942 99.512 14.427 7.316 2.009 14.436 2.951 21.289 2.951 23.982 0 45.965-10.907 63.529-28 16.8-16.347 29.627-38.578 36.107-62.178 3.111-11.333 4.8-22.916 4.8-34.231 0-33.565-13.733-64.081-35.831-86.187-22.107-22.098-52.623-35.831-86.187-35.831h-198.295c-33.565 0-64.081 13.733-86.187 35.831-22.098 22.107-35.831 52.623-35.831 86.187 0 13.787 2.524 28.027 7.076 41.725 7.307 21.956 19.947 42.498 35.92 57.565 16.809 15.867 37.378 25.929 59.654 25.929 7.698 0 15.662-1.262 23.796-3.964zM626.45 282.785c-34.551-0.071-67.743 5.076-99.494 15.627-4.96 1.644-9.973 2.427-14.951 2.427-14.56 0-28.525-7.067-40.311-18.196-12.631-11.92-22.667-28.285-28.516-45.849-3.556-10.702-5.529-21.929-5.529-32.88 0-25.76 10.551-49.192 27.547-66.178 16.996-16.996 40.418-27.547 66.178-27.547h198.295c25.76 0 49.192 10.551 66.178 27.547 16.996 16.987 27.547 40.418 27.547 66.178 0 9.031-1.298 18.098-3.698 26.836-5.156 18.791-15.307 36.436-28.578 49.36-12.507 12.169-27.734 19.947-43.858 19.947-4.649 0-9.316-0.596-13.885-1.858-36.898-10.133-72.57-15.342-106.916-15.405zM247.575 572.877h173.699c20.711 0 39.52-8.462 53.156-22.089 13.636-13.636 22.098-32.445 22.098-53.156v-198.704l-7.742-3.956c-14.329-7.333-26.925-20.765-36.089-36.889-9.431-16.587-15.040-35.84-15.040-54.16 0-15.138 3.609-29.431 10-42.054 6.676-13.182 16.373-24.605 28.16-33.343l12.231-9.067-9.973-11.485c-7.031-8.098-15.778-14.711-25.654-19.236-9.565-4.391-20.134-6.845-31.147-6.845h-173.699c-20.711 0-39.52 8.462-53.156 22.098-13.636 13.627-22.098 32.445-22.098 53.156v340.483c0 20.711 8.462 39.52 22.098 53.156 13.636 13.627 32.445 22.089 53.156 22.089zM421.275 544.592h-173.699c-12.898 0-24.64-5.298-33.156-13.805-8.507-8.507-13.805-20.249-13.805-33.156v-340.483c0-12.907 5.289-24.64 13.805-33.156 8.516-8.507 20.258-13.805 33.156-13.805h173.699c6.987 0 13.573 1.502 19.431 4.187 1.778 0.818 3.493 1.742 5.156 2.764-9.431 9.298-17.369 20.098-23.405 32.009-8.365 16.525-13.093 35.147-13.093 54.765 0 23.165 7.013 47.36 18.791 68.089 10.142 17.84 23.965 33.307 40.080 43.6v182.028c0 12.898-5.289 24.64-13.805 33.156-8.507 8.507-20.249 13.805-33.156 13.805zM305.434 650.282h57.965c14.951 0 28.551-6.124 38.418-15.982l0.053-0.053c9.849-9.867 15.982-23.467 15.982-38.418v-51.236h-166.873v51.236c0 14.951 6.124 28.551 15.982 38.418l0.053 0.053c9.867 9.858 23.476 15.982 38.418 15.982zM363.399 621.988h-57.965c-7.2 0-13.751-2.942-18.498-7.662-4.72-4.756-7.662-11.298-7.662-18.498v-22.951h110.294v22.951c0 7.2-2.942 13.751-7.662 18.498-4.756 4.72-11.298 7.662-18.498 7.662zM377.177 728.656c0.462-5.796 0.844-12.48 1.129-19.982 0.276-7.538 0.436-14.533 0.436-20.827v-66.027l-15.342 0.24v-0.053l-57.965 0.053-15.342-0.24v66.027c0 6.293 0.151 13.298 0.436 20.827 0.284 7.502 0.667 14.187 1.129 19.982l1.040 13.040h83.441l1.040-13.040zM350.127 707.678l-0.258 5.724h-30.907l-0.258-5.724c-0.213-5.6-0.32-12.205-0.32-19.84v-37.556h32.071v37.556c0 7.636-0.107 14.24-0.329 19.84zM249.327 813.563h303.007v-142.197h-112.365v42.036h-204.775v100.17h14.142zM524.040 785.27h-260.571v-43.591h204.784v-42.036h55.787v85.627zM426.884 378.333c0-51.066-41.397-92.463-92.463-92.463s-92.463 41.397-92.463 92.463c0 51.066 41.397 92.463 92.463 92.463s92.463-41.397 92.463-92.463zM684.228 481.445c16.605 0 31.68-6.765 42.623-17.689l0.062-0.062c10.925-10.951 17.689-26.027 17.689-42.631 0-16.676-6.765-31.769-17.689-42.694-10.916-10.916-26.018-17.689-42.685-17.689-16.631 0-31.716 6.765-42.64 17.689l-0.062 0.062c-10.916 10.925-17.689 26.009-17.689 42.631 0 16.676 6.765 31.769 17.689 42.694 10.925 10.916 26.027 17.689 42.694 17.689zM706.913 443.818c-5.76 5.769-13.787 9.342-22.685 9.342-8.871 0-16.889-3.591-22.694-9.396-5.796-5.796-9.396-13.831-9.396-22.685 0-8.88 3.591-16.916 9.369-22.72 5.804-5.787 13.84-9.369 22.72-9.369 8.853 0 16.889 3.6 22.685 9.396 5.804 5.804 9.396 13.831 9.396 22.694 0 8.907-3.573 16.925-9.342 22.685l-0.062 0.062zM587.303 632.024c23.289 0 44.436-9.467 59.769-24.782l0.062-0.062c15.307-15.342 24.782-36.48 24.782-59.769 0-23.351-9.485-44.516-24.782-59.832-15.378-15.298-36.525-24.782-59.832-24.782-23.36 0-44.516 9.476-59.832 24.782-15.307 15.307-24.782 36.48-24.782 59.832 0 23.307 9.485 44.454 24.809 59.796 15.28 15.342 36.445 24.809 59.796 24.809zM627.125 587.295c-10.151 10.16-24.231 16.436-39.823 16.436-15.556 0-29.645-6.302-39.831-16.498h-0.053c-10.16-10.151-16.445-24.231-16.445-39.823 0-15.547 6.311-29.645 16.498-39.823 10.187-10.187 24.276-16.498 39.831-16.498 15.591 0 29.671 6.284 39.823 16.436v0.062c10.187 10.187 16.498 24.276 16.498 39.823 0 15.591-6.284 29.671-16.436 39.823l-0.062 0.062zM700.504 814.105c28.071 0 53.52-11.405 71.938-29.822l0.053-0.062c18.427-18.427 29.822-43.867 29.822-71.938s-11.405-53.52-29.822-71.947l-0.053-0.062c-18.427-18.418-43.867-29.822-71.938-29.822s-53.52 11.405-71.947 29.822l-0.062 0.062c-18.418 18.427-29.822 43.876-29.822 71.947s11.405 53.52 29.822 71.938l0.062 0.062c18.427 18.418 43.876 29.822 71.947 29.822zM752.531 764.309c-13.307 13.28-31.698 21.502-52.027 21.502-20.338 0-38.729-8.222-52.036-21.502-13.28-13.307-21.502-31.698-21.502-52.027s8.231-38.729 21.502-52.027c13.307-13.28 31.698-21.511 52.036-21.511 20.32 0 38.72 8.231 52.027 21.511 13.28 13.298 21.502 31.698 21.502 52.027 0 20.32-8.222 38.72-21.502 52.027z" />
<glyph unicode="&#xe923;" glyph-name="ico36" d="M606.023 476.698c-7.84 5.538-9.698 16.391-4.16 24.231s16.391 9.698 24.231 4.16l258.34-182.882c24.285-17.2 39.254-32.071 46.169-44.72 5.982-10.951 6.96-21.102 3.413-30.436-3.422-9.005-10.613-15.849-21.147-20.658-14.542-6.631-37.174-9.76-65.858-9.76l-700.015 0.107c-19.396 0.524-33.005 4.213-42.027 9.778-8.969 5.52-14.053 12.845-16.062 21.156-1.911 7.902-0.773 15.938 2.578 23.565l0.027 0.062c4.498 10.32 13.6 20.347 24.089 27.698l383.47 271.451 0.204 38.88c0.036 9.582 7.822 17.325 17.396 17.333v0.071c27.6 0 52.605 11.2 70.667 29.307 18.071 18.125 29.289 43.2 29.289 70.907 0 27.671-11.218 52.729-29.351 70.854-18.125 18.125-43.183 29.351-70.854 29.351s-52.729-11.218-70.854-29.351c-18.125-18.125-29.351-43.183-29.351-70.854 0-4.844 0.293-9.387 0.862-13.582 0.613-4.507 1.529-8.933 2.711-13.227 2.56-9.271-2.88-18.871-12.151-21.431s-18.871 2.88-21.431 12.151c-1.609 5.813-2.844 11.796-3.671 17.876-0.836 6.187-1.271 12.285-1.271 18.222 0 37.316 15.138 71.112 39.583 95.556 24.454 24.454 58.241 39.583 95.556 39.583s71.112-15.138 95.556-39.583c24.454-24.454 39.583-58.241 39.583-95.556 0-37.254-15.12-71.005-39.52-95.467-20.596-20.64-47.787-34.658-78.054-38.569l-0.16-31.538c-0.044-5.431-2.596-10.765-7.369-14.125l-390.928-276.758c-5.529-3.876-10.125-8.702-12.107-13.218l-0.667-1.396c0.098-0.418 0.044 0.551 0.498 0.276 4.124-2.542 11.893-4.276 24.507-4.604l699.242 0.044c23.982 0 41.725 2.080 51.387 6.489l2.996 1.28c0.142 0.382-0.596 0.080-1.36 1.493-4.444 8.116-15.947 19.022-35.671 32.978l-258.34 182.882z" />
<glyph unicode="&#xe924;" glyph-name="ico37" d="M325.467 379.506h336.222c9.108 0.137 17.347 3.89 23.342 9.886 6.087 6.133 9.886 14.555 9.886 23.8v61.926h-403.137v-61.926c0-9.245 3.799-17.667 9.886-23.754l0.641-0.687c5.904-5.63 13.914-9.108 22.702-9.245h0.412zM288.622 726.988l-58.722 13.548c-21.924 5.080 4.943 60.645 34.144 38.996l54.74-40.598c20.139 6.728 42.428 12.037 66.091 15.928 5.767 0.961 11.671 1.831 17.575 2.609 2.746 24.258 18.903 134.379 83.483 137.171 68.563 2.975 111.403-127.834 114.286-136.896 28.423-1.648 55.564-4.897 80.188-9.108 30.94-5.309 58.31-12.129 79.547-19.132 33.549 0.183 212.187-11.030 156.669-276.768-4.028-19.269-23.48-96.39-41.925-165.502-12.815-48.012-25.311-92.546-32.039-111.906-1.236-25.356-20.779-43.344-47.6-55.885-35.242-16.477-84.124-23.937-114.652-26.18-6.545-1.282-13.319-1.968-20.184-1.968h-335.444c-28.697 0-54.74 11.717-73.643 30.62-18.857 18.857-30.62 44.946-30.62 73.643v448.678c0 35.7 26.592 63.253 68.105 82.751zM823.804 686.207l0.87-1.236c6.591-9.703 11.625-20.55 14.646-32.176 19.727-16.843 59.455-84.033 3.387-345.147v-27.416l3.89 14.509c18.445 69.066 37.76 145.364 41.604 163.9 30.711 147.149-17.804 204.956-64.398 227.52zM842.707 589.405v-103.942c4.76 49.751 3.524 82.477 0 103.942zM735.241 645.655c-0.32 6.591-2.746 13.090-6.637 19.269-5.309 8.376-13.273 16.202-22.564 23.022-32.679 24.212-77.122 31.718-130.306 40.735l-7.415 1.236c-24.487 2.792-50.163 4.211-75.932 4.211-35.426 0-70.668-2.655-102.936-7.964-78.54-12.907-139.871-40.46-139.871-81.973v-448.678c0-20.642 8.467-39.408 22.061-53.047 13.639-13.639 32.405-22.061 53.047-22.061h335.444c20.642 0 39.408 8.467 53.047 22.061 10.847 10.847 18.445 24.99 21.054 40.689v0.046l0.137 0.915 0.092 0.687 0.046 0.275 0.137 0.915 0.046 0.412 0.046 0.503 0.092 0.961v0.183l0.092 0.778v0.046l0.046 0.824v0.092l0.046 0.732v0.183l0.046 0.641v0.32l0.046 0.503v452.019l-0.046 1.419zM766.089 696.459c-3.204 1.282-6.682 2.563-10.39 3.845-3.433-0.046-6.591 1.053-9.108 3.021-6.042 1.877-12.541 3.753-19.544 5.63 22.107-16.385 35.746-36.524 37.165-60.507l0.046-0.595 0.046-1.19c0.046-0.824 0.046-1.602 0.046-2.426v-451.973l-0.046-0.687v-0.412l-0.046-0.915v-0.183l-0.046-1.098v-0.046l-0.092-1.053v-0.275l-0.092-0.824-0.046-0.503-0.046-0.595-0.137-1.098-0.092-0.961v-0.137c-0.183-1.419-0.366-2.883-0.595-4.302l-0.137-0.778-0.046-0.32-0.183-0.961v-0.092l-0.183-1.053-0.046-0.137c-3.112-16.111-9.978-30.986-19.635-43.573 14.143 3.433 27.965 7.872 39.819 13.41 17.942 8.376 30.849 19.086 30.849 32.176v448.678c0 15.607-4.76 30.116-12.907 42.108-8.422 12.404-20.459 22.198-34.556 27.782zM435.313 760.949c3.25 22.473 15.745 83.255 56.296 84.994 43.161 1.877 70.393-71.538 75.565-86.687l1.922-0.229c-10.344 29.018-42.245 108.245-81.882 106.551-38.309-1.648-51.491-77.076-55.106-104.949l3.25 0.275zM535.365 761.956c-7.735 20.276-23.983 55.793-42.52 55.015-17.575-0.778-25.173-35.288-28.057-54.237 9.2 0.366 18.445 0.549 27.645 0.549 14.326 0 28.697-0.412 42.932-1.282zM702.744 366.141c0.046-0.412 0.046-0.824 0.046-1.236v-198.685c0-8.055-6.499-14.555-14.555-14.555h-389.818c-8.055 0-14.555 6.499-14.555 14.555v198.685c0 0.412 0 0.87 0.046 1.282-0.641 0.549-1.282 1.144-1.877 1.739l-0.915 0.87c-11.351 11.351-18.445 27.050-18.445 44.351v76.481c0 8.055 6.499 14.555 14.555 14.555h432.247c8.055 0 14.555-6.499 14.555-14.555v-76.481c0-17.255-7.048-33-18.445-44.351-0.915-0.915-1.877-1.785-2.838-2.655zM325.421 350.351h-12.449v-169.576h360.709v169.576h-348.26z" />
<glyph unicode="&#xe925;" glyph-name="ico38" d="M429.714 219.429v0l-182.857-68.571c-4.571-4.571-13.714 0-18.286 4.571 0 4.571 0 9.143 0 13.714l54.857 187.429c0 0 0 0 0 0v4.571h4.571c0 0 0 0 0 0l356.571 384c18.286 22.857 50.286 13.714 77.714-4.571 13.714-4.571 22.857-13.714 32-22.857s18.286-18.286 27.429-27.429c18.286-32 27.429-59.429 13.714-82.286l-361.143-388.571h-4.571zM704 557.714l-105.143 96-283.429-306.286 9.143-27.429 41.143-13.714c4.571 0 9.143-4.571 9.143-9.143l9.143-36.571 36.571-9.143 283.429 306.286zM617.143 676.571l109.714-100.571 45.714 54.857c4.571 4.571-4.571 22.857-18.286 41.143-4.571 9.143-13.714 13.714-18.286 22.857-9.143 9.143-18.286 13.714-27.429 22.857-18.286 9.143-36.571 18.286-45.714 9.143l-45.714-50.286zM265.143 187.429l118.857 45.714-13.714 4.571c-4.571 0-9.143 4.571-9.143 9.143l-9.143 36.571-41.143 9.143c-4.571 0-9.143 4.571-9.143 9.143h-4.571l-32-114.286z" />
<glyph unicode="&#xe926;" glyph-name="ico39" d="M768 443.429c18.286-9.143 36.571-22.857 45.714-41.143 18.286-27.429 27.429-54.857 27.429-86.857 0-27.429-9.143-50.286-22.857-73.143-9.143-18.286-18.286-27.429-32-41.143h54.857v-109.714h-635.429v109.714h64c-82.286 100.571-68.571 210.286-41.143 306.286 4.571 18.286 9.143 36.571 13.714 54.857 27.429 91.429 50.286 173.714-18.286 214.857l-41.143 27.429h388.571l-41.143-27.429c-68.571-41.143-45.714-123.429-18.286-214.857 32-114.286 68.571-242.286-27.429-361.143h118.857c-13.714 13.714-27.429 22.857-32 41.143-13.714 22.857-22.857 45.714-22.857 73.143 0 32 9.143 59.429 22.857 86.857 13.714 18.286 32 32 50.286 41.143-4.571 4.571-4.571 9.143-9.143 13.714-4.571 13.714-9.143 27.429-9.143 41.143v13.714h182.857v-13.714c0-13.714-4.571-27.429-9.143-41.143-4.571-4.571-9.143-9.143-9.143-13.714zM233.143 173.714v-54.857h576v54.857h-576zM260.571 516.571c0-22.857 9.143-82.286 82.286-128 36.571-22.857 64-36.571 86.857-45.714 36.571-18.286 59.429-27.429 73.143-50.286 9.143 22.857 13.714 45.714 13.714 73.143-4.571 36.571-27.429 45.714-64 64-27.429 9.143-54.857 22.857-91.429 45.714-45.714 32-73.143 68.571-86.857 100.571l-4.571-22.857c-4.571-13.714-9.143-27.429-9.143-36.571zM484.571 251.429c-9.143 36.571-27.429 45.714-64 64-27.429 9.143-54.857 22.857-91.429 45.714-45.714 32-73.143 68.571-86.857 96-13.714-82.286-13.714-164.571 54.857-242.286h160c9.143 13.714 18.286 22.857 27.429 36.571zM292.571 635.429c0-9.143 0-77.714 86.857-132.571 32-22.857 59.429-36.571 82.286-45.714s36.571-18.286 50.286-27.429c-4.571 41.143-18.286 86.857-27.429 123.429-27.429 91.429-50.286 169.143 0 224h-214.857c32-36.571 32-86.857 22.857-141.714zM635.429 420.571c-4.571-59.429 45.714-86.857 91.429-109.714 27.429-18.286 54.857-32 68.571-50.286 9.143 18.286 18.286 36.571 18.286 54.857 0 27.429-9.143 50.286-22.857 68.571s-32 36.571-54.857 45.714l-22.857 9.143 18.286 13.714c9.143 4.571 13.714 13.714 18.286 18.286 0 4.571 4.571 9.143 4.571 13.714h-118.857c0-4.571 0-9.143 4.571-13.714s9.143-13.714 18.286-18.286l18.286-13.714-22.857-9.143c-9.143-4.571-13.714-9.143-18.286-9.143zM777.143 233.143c-4.571 18.286-32 36.571-64 50.286-45.714 22.857-100.571 50.286-109.714 109.714 0 0-4.571-4.571-4.571-9.143-13.714-18.286-22.857-41.143-22.857-68.571 0-18.286 9.143-41.143 18.286-59.429s27.429-32 41.143-41.143h114.286c13.714 4.571 22.857 13.714 27.429 18.286z" />
<glyph unicode="&#xe927;" glyph-name="ico40" d="M192 365.714l128 114.286v-91.429h370.286c27.429 0 54.857 9.143 73.143 32 22.857 18.286 32 45.714 32 73.143 0 32-9.143 59.429-32 77.714v0c-18.286 22.857-45.714 32-73.143 32h-82.286v36.571h82.286c36.571 0 73.143-13.714 100.571-41.143v0c27.429-27.429 41.143-64 41.143-105.143 0-36.571-13.714-73.143-41.143-100.571s-64-41.143-100.571-41.143h-370.286v-96l-128 109.714z" />
<glyph unicode="&#xe928;" glyph-name="ico41" d="M224 434.286c-4.571 4.571-9.143 9.143-9.143 13.714s4.571 9.143 9.143 13.714l141.714 146.286c4.571 4.571 18.286 4.571 22.857 0 9.143-9.143 9.143-18.286 0-22.857l-114.286-118.857h516.571c9.143 0 13.714-9.143 13.714-18.286s-4.571-18.286-13.714-18.286h-516.571l114.286-114.286c9.143-9.143 9.143-18.286 0-27.429-4.571-4.571-18.286-4.571-22.857 0l-141.714 146.286z" />
<glyph unicode="&#xe929;" glyph-name="ico42" d="M509.704 744.179c87.247 0 165.309-32.143 220.413-91.839 55.103-55.103 87.247-133.166 87.247-215.821 0-87.247-32.143-165.309-87.247-220.413s-133.166-87.247-220.413-87.247c-82.655 0-160.717 32.143-215.821 87.247s-91.839 133.166-91.839 220.413c0 82.655 36.735 160.717 91.839 215.821 55.103 59.695 133.166 91.839 215.821 91.839zM509.704 679.892c68.879 0 133.166-27.552 179.085-73.471-22.96 9.184-50.511 13.776-73.471 13.776-105.614 0-188.269-82.655-188.269-183.677s82.655-183.677 188.269-183.677c22.96 0 50.511 4.592 73.471 13.776-45.919-45.919-110.206-78.063-179.085-78.063-133.166 0-243.372 110.206-243.372 247.964 0 133.166 110.206 243.372 243.372 243.372zM776.036 780.915c9.184 9.184 18.368 9.184 27.552 4.592 4.592-9.184 9.184-18.368 0-27.552l-50.511-59.695c-4.592-9.184-18.368-9.184-22.96-4.592-9.184 9.184-9.184 18.368-4.592 27.552l50.511 59.695zM936.753 528.359c9.184 0 18.368-4.592 22.96-13.776 0-9.184-4.592-18.368-18.368-18.368l-78.063-13.776c-9.184-4.592-18.368 4.592-18.368 13.776-4.592 9.184 4.592 18.368 13.776 18.368l78.063 13.776zM895.426 234.475c9.184-4.592 13.776-18.368 9.184-27.552-4.592-4.592-18.368-9.184-22.96-4.592l-73.471 41.327c-4.592 4.592-9.184 13.776-4.592 22.96s13.776 9.184 22.96 4.592l68.879-36.735zM675.013 32.43c4.592-9.184 0-18.368-9.184-22.96s-18.368 0-22.96 9.184l-27.552 78.063c-4.592 9.184 4.592 18.368 9.184 22.96 9.184 0 22.96-4.592 22.96-13.776l27.552-73.471zM376.538 18.655c0-9.184-13.776-13.776-18.368-9.184-9.184 4.592-13.776 13.776-13.776 22.96l27.552 73.471c4.592 9.184 13.776 13.776 22.96 13.776 9.184-4.592 13.776-13.776 9.184-22.96l-27.552-78.063zM142.35 202.332c-9.184-4.592-18.368 0-22.96 4.592-4.592 9.184-4.592 22.96 4.592 27.552l68.879 36.735c9.184 4.592 22.96 4.592 27.552-4.592s0-18.368-9.184-22.96l-68.879-41.327zM78.063 496.215c-9.184 0-13.776 9.184-13.776 18.368s9.184 13.776 18.368 13.776l82.655-13.776c9.184 0 13.776-9.184 13.776-18.368-4.592-9.184-13.776-18.368-22.96-13.776l-78.063 13.776zM215.821 757.955c-4.592 9.184-4.592 18.368 4.592 27.552 4.592 4.592 18.368 4.592 22.96-4.592l50.511-59.695c9.184-9.184 9.184-18.368 0-27.552-9.184-4.592-18.368-4.592-22.96 4.592l-55.103 59.695zM491.336 872.753c0 9.184 9.184 18.368 18.368 18.368s18.368-9.184 18.368-18.368v-82.655c0-9.184-9.184-18.368-18.368-18.368s-18.368 9.184-18.368 18.368v82.655zM702.565 629.381c-45.919 50.511-114.798 78.063-192.861 78.063-73.471 0-142.35-27.552-192.861-78.063s-78.063-119.39-78.063-192.861c0-78.063 27.552-146.942 78.063-192.861 50.511-50.511 119.39-82.655 192.861-82.655 78.063 0 146.942 32.143 192.861 82.655 50.511 45.919 82.655 114.798 82.655 192.861 0 73.471-32.143 142.35-82.655 192.861z" />
<glyph unicode="&#xe92a;" glyph-name="ico43" d="M719.181 540.874c4.763 4.763 14.288 4.763 19.051 0 4.763-9.526 4.763-19.051 0-23.814 0 0-4.763 0-4.763-4.763l19.051-23.814c4.763-9.526 4.763-19.051-4.763-23.814-4.763-4.763-14.288 0-19.051 4.763l-19.051 28.577c-14.288-9.526-23.814-19.051-38.102-23.814l23.814-47.628c0-9.526 0-19.051-9.526-19.051-4.763-4.763-14.288 0-19.051 4.763l-19.051 47.628c-19.051-4.763-33.34-9.526-47.628-14.288l14.288-61.916c0-9.526-4.763-19.051-14.288-19.051-4.763 0-14.288 4.763-14.288 9.526l-14.288 66.679c-14.288-4.763-28.577-4.763-42.865-4.763v-76.205c0-9.526-9.526-14.288-14.288-14.288-9.526 0-14.288 4.763-14.288 14.288v76.205c-14.288 0-28.577 4.763-42.865 4.763l-14.288-66.679c-4.763-4.763-9.526-9.526-19.051-9.526s-14.288 9.526-9.526 19.051l14.288 61.916c-19.051 4.763-33.34 9.526-47.628 19.051l-23.814-52.391c0-4.763-9.526-9.526-19.051-4.763-4.763 0-9.526 9.526-4.763 19.051l19.051 47.628c-9.526 9.526-19.051 14.288-33.34 23.814 0 0 0 0 0 0l-23.814-28.577c-4.763-4.763-14.288-9.526-19.051-4.763s-9.526 14.288 0 23.814l19.051 23.814c0 4.763 0 4.763 0 4.763s-4.763 4.763-9.526 4.763c-4.763 4.763-4.763 14.288 0 23.814 4.763 4.763 14.288 4.763 19.051 0 61.916-52.391 133.358-80.967 209.563-80.967 71.442 0 142.884 23.814 204.8 76.205z" />
<glyph unicode="&#xe92b;" glyph-name="ico44" d="M733.47 417.042c-66.679-57.153-142.884-80.967-223.851-80.967s-157.172 28.577-223.851 85.73l-4.763 4.763c-9.526 9.526-14.288 9.526-14.288 19.051s4.763 14.288 14.288 23.814l4.763 4.763c66.679 57.153 142.884 85.73 223.851 85.73s161.935-28.577 228.614-85.73l4.763-4.763c9.526-9.526 14.288-14.288 14.288-23.814s-4.763-14.288-14.288-23.814l-9.526-4.763zM514.381 521.823c19.051 0 38.102-4.763 52.391-19.051s23.814-33.34 23.814-57.153c0-19.051-9.526-38.102-23.814-52.391s-33.34-23.814-52.391-23.814c-23.814 0-42.865 9.526-57.153 23.814-9.526 14.288-19.051 33.34-19.051 52.391 0 23.814 9.526 42.865 19.051 57.153 14.288 14.288 33.34 19.051 57.153 19.051zM547.721 478.958c-9.526 9.526-23.814 14.288-33.34 14.288-14.288 0-23.814-4.763-33.34-14.288-9.526-4.763-14.288-19.051-14.288-33.34 0-9.526 4.763-23.814 14.288-33.34 9.526-4.763 19.051-14.288 33.34-14.288 9.526 0 23.814 9.526 33.34 14.288 9.526 9.526 14.288 23.814 14.288 33.34 0 14.288-4.763 28.577-14.288 33.34zM509.619 364.651c71.442 0 147.647 23.814 204.8 76.205l9.526 4.763c4.763 4.763 4.763 0 4.763 0 0 4.763 0 0-4.763 4.763l-4.763 4.763c-61.916 47.628-133.358 76.205-209.563 76.205-71.442 0-142.884-28.577-204.8-80.967l-4.763-4.763h4.763c61.916-52.391 133.358-80.967 204.8-80.967zM295.293 445.619c0 0 0 0 0 0 0 4.763 0 4.763 0 0z" />
<glyph unicode="&#xe92c;" glyph-name="ico45" d="M400.475 356.752c-5.069 0-30.416-20.277-45.624 10.139-5.069 10.139 0 25.347-5.069 25.347s-10.139-10.139-25.347-5.069c-20.277 5.069-25.347 30.416-5.069 40.554 5.069 5.069 15.208 5.069 25.347 0s10.139-10.139 10.139-20.277c10.139 5.069 10.139 20.277 35.485 20.277 25.347-5.069 20.277-20.277 25.347-30.416 5.069 0 20.277 20.277 40.554 5.069s5.069-40.554 5.069-45.624c5.069 0 20.277 15.208 40.554-5.069 25.347-20.277 0-60.832-30.416-50.693-20.277 10.139-20.277 30.416-20.277 35.485-10.139 0-15.208-15.208-35.485-10.139-20.277 10.139-10.139 20.277-15.208 30.416v0zM354.851 346.614c15.208-15.208 20.277-10.139 35.485-10.139 5.069-5.069 5.069-10.139 20.277-20.277s25.347 0 30.416-5.069c0 0 10.139-20.277 30.416-25.347 25.347-5.069 25.347 5.069 45.624 15.208 10.139-5.069 15.208-15.208 35.485-15.208 25.347 0 30.416 15.208 35.485 15.208 0 5.069 15.208-5.069 30.416 5.069s15.208 20.277 20.277 25.347c10.139 5.069 20.277-5.069 35.485 10.139 10.139 10.139 15.208 15.208 15.208 30.416 15.208 0 30.416 0 40.554 15.208 20.277 20.277 5.069 30.416 5.069 40.554 10.139 5.069 147.010 50.693 157.149 50.693 5.069-86.178-55.762-157.149-126.733-192.634-147.010-86.178-364.99-86.178-512 0-60.832 35.485-131.802 106.455-121.663 192.634 25.347 0 152.079-35.485 162.218-55.762 0-15.208-5.069-20.277 10.139-35.485 15.208-20.277 30.416-15.208 35.485-15.208 5.069-10.139 0-15.208 15.208-25.347v0zM512 625.426c15.208 5.069 65.901-5.069 86.178-15.208 25.347-10.139 40.554-15.208 70.97-20.277 40.554-10.139 86.178-5.069 126.733 15.208 15.208 5.069 15.208 10.139 30.416-5.069 25.347-20.277 45.624-50.693 55.762-86.178 10.139-25.347 10.139-20.277-10.139-25.347-45.624-10.139-106.455-30.416-147.010-50.693-5.069 0-20.277 15.208-25.347 20.277-10.139 10.139-15.208 15.208-25.347 25.347-20.277 15.208-35.485 30.416-50.693 40.554-35.485 35.485-81.109 81.109-126.733 50.693-35.485-20.277-55.762-55.762-96.317-45.624-20.277 5.069-15.208 10.139-5.069 20.277 20.277 20.277 30.416 35.485 50.693 50.693 15.208 10.139 30.416 15.208 45.624 20.277 5.069 5.069 20.277 5.069 20.277 5.069zM481.584 377.030c0 15.208 0 25.347-15.208 35.485-15.208 15.208-25.347 10.139-40.554 10.139-5.069 0-5.069 10.139-25.347 15.208s-25.347 0-40.554-5.069c-10.139 5.069-5.069 10.139-25.347 15.208-15.208 0-20.277-5.069-30.416-10.139-5.069 0-30.416 15.208-35.485 20.277-15.208 5.069-30.416 10.139-45.624 15.208-25.347 10.139-60.832 15.208-86.178 25.347 0 20.277 20.277 55.762 35.485 70.97 5.069 10.139 15.208 20.277 25.347 30.416 20.277 15.208 10.139 15.208 35.485 10.139 35.485-15.208 101.386-35.485 136.871-30.416 15.208 5.069 30.416 10.139 45.624 10.139-5.069-10.139-50.693-40.554-45.624-60.832 10.139-20.277 60.832-20.277 76.040-10.139 25.347 15.208 40.554 35.485 65.901 45.624 30.416 10.139 50.693-10.139 70.97-25.347 40.554-30.416 76.040-65.901 111.525-96.317 10.139-10.139 25.347-20.277 30.416-30.416 5.069-15.208-10.139-25.347-25.347-25.347-15.208-5.069-45.624 30.416-60.832 40.554-5.069 5.069-10.139 10.139-15.208 15.208s-10.139 0-5.069-10.139c10.139-5.069 20.277-15.208 25.347-25.347 15.208-10.139 50.693-40.554 15.208-60.832-25.347-10.139-45.624 20.277-60.832 40.554-5.069 0-15.208 10.139-20.277 5.069s5.069-10.139 10.139-15.208c10.139-10.139 15.208-20.277 25.347-30.416s15.208-20.277-5.069-30.416c-20.277-5.069-25.347 5.069-35.485 15.208-5.069 5.069-25.347 25.347-30.416 25.347-10.139 0 15.208-25.347 15.208-30.416 10.139-10.139 25.347-20.277 0-25.347-10.139 0-35.485 5.069-30.416 15.208 10.139 30.416-15.208 60.832-45.624 60.832v0zM228.119 625.426c25.347 25.347 96.317 50.693 126.733 60.832 55.762 15.208 101.386 20.277 157.149 20.277 96.317 0 202.772-25.347 283.881-81.109 5.069-5.069 5.069-5.069-5.069-5.069-5.069-5.069-10.139-5.069-15.208-10.139-10.139 0-25.347-5.069-35.485-5.069-30.416-5.069-55.762-5.069-81.109 0-55.762 15.208-86.178 40.554-147.010 35.485-20.277 0-45.624-10.139-65.901-25.347-20.277-10.139-15.208-5.069-35.485-10.139-10.139 0-20.277-5.069-35.485-10.139-25.347-5.069-50.693 5.069-76.040 10.139-5.069 0-70.97 20.277-70.97 20.277v0zM101.386 437.861c20.277-288.95 491.723-334.574 694.495-197.703 81.109 50.693 126.733 116.594 126.733 223.050 0 91.248-65.901 162.218-141.941 202.772-91.248 50.693-177.426 65.901-283.881 65.901-172.356 0-410.614-91.248-395.406-294.020z" />
<glyph unicode="&#xe92d;" glyph-name="ico46" d="M177.426 797.782h223.050v-233.188h-233.188v233.188h10.139zM425.822 529.109h-106.455v-106.455h106.455v-106.455h106.455v-111.525h-106.455v-106.455h106.455v106.455h111.525v111.525h106.455v106.455h106.455v106.455h-106.455v-106.455h-106.455v106.455h-111.525v-106.455h-106.455v106.455zM532.277 422.653h111.525v-106.455h-111.525v106.455zM856.713 98.218h-106.455v106.455h106.455v-106.455zM177.426 331.406h223.050v-233.188h-233.188v233.188h10.139zM238.257 260.436h91.248v-91.248h-91.248v91.248zM380.198 311.129h-192.634v-192.634h192.634v192.634zM633.663 797.782h223.050v-233.188h-233.188v233.188h10.139zM694.495 726.812h91.248v-86.178h-91.248v86.178zM836.436 777.505h-192.634v-187.564h192.634v187.564zM238.257 726.812h91.248v-86.178h-91.248v86.178zM380.198 777.505h-192.634v-187.564h192.634v187.564z" />
</font>
</defs>
</svg>
